Interfilm

Untitled

Jun 15th, 2014
185
Never
Not a member of Pastebin yet? Sign Up, it unlocks many cool features!
  1. General
  2. Complete name : M:Afflicted 2013 HDR BDRip 720p.mkv
  3. Format : Matroska
  4. Format version : Version 4 / Version 2
  5. File size : 4.87 GiB
  6. Duration : 1h 25mn
  7. Overall bit rate : 8 137 Kbps
  8. Movie name : Afflicted 2013 HDR BDRip 720p
  9. Encoded date : UTC 2014-06-13 05:58:18
  10. Writing application : mkvmerge v7.0.0 ('Where We Going') 64bit built on Jun 9 2014 15:16:27
  11. Writing library : libebml v1.3.0 + libmatroska v1.4.1
  12. DURATION : 01:20:43.560000000
  13. NUMBER_OF_FRAMES : 973
  14. NUMBER_OF_BYTES : 3010708
  15. _STATISTICS_WRITING_APP : mkvmerge v7.0.0 ('Where We Going') 64bit built on Jun 9 2014 15:16:27
  16. _STATISTICS_WRITING_DATE_UTC : 2014-06-13 05:58:18
  17. _STATISTICS_TAGS : BPS DURATION NUMBER_OF_FRAMES NUMBER_OF_BYTES
  18. Attachment : Yes
  19.  
  20. Video #1
  21. ID : 1
  22. Format : AVC
  23. Format/Info : Advanced Video Codec
  24. Format profile : High@L4.1
  25. Format settings, CABAC : Yes
  26. Format settings, ReFrames : 5 frames
  27. Codec ID : V_MPEG4/ISO/AVC
  28. Duration : 1h 25mn
  29. Bit rate : 5 782 Kbps
  30. Width : 1 280 pixels
  31. Height : 696 pixels
  32. Display aspect ratio : 1.85:1
  33. Frame rate mode : Constant
  34. Frame rate : 23.976 fps
  35. Color space : YUV
  36. Chroma subsampling : 4:2:0
  37. Bit depth : 8 bits
  38. Scan type : Progressive
  39. Bits/(Pixel*Frame) : 0.271
  40. Stream size : 3.38 GiB (69%)
  41. Title : Afflicted 2013 HDR BDRip 720p
  42. Writing library : x264 core 142 r2431 ac76440
  43. Encoding settings : cabac=1 / ref=5 / deblock=1:0:0 / analyse=0x3:0x133 / me=umh / subme=7 / psy=1 / psy_rd=1.00:0.00 / mixed_ref=1 / me_range=16 / chroma_me=1 / trellis=1 / 8x8dct=1 / cqm=0 / deadzone=21,11 / fast_pskip=0 / chroma_qp_offset=-2 / threads=18 / lookahead_threads=3 / sliced_threads=0 / nr=0 / decimate=1 / interlaced=0 / bluray_compat=0 / constrained_intra=0 / bframes=3 / b_pyramid=2 / b_adapt=1 / b_bias=0 / direct=1 / weightb=1 / open_gop=0 / weightp=2 / keyint=250 / keyint_min=23 / scenecut=40 / intra_refresh=0 / rc_lookahead=40 / rc=2pass / mbtree=1 / bitrate=5782 / ratetol=1.0 / qcomp=0.60 / qpmin=0 / qpmax=69 / qpstep=4 / cplxblur=20.0 / qblur=0.5 / ip_ratio=1.40 / aq=1:1.00
  44. Language : English
  45. Default : Yes
  46. Forced : No
  47. DURATION : 01:25:45.440000000
  48. NUMBER_OF_FRAMES : 123367
  49. NUMBER_OF_BYTES : 3715966058
  50. _STATISTICS_WRITING_APP : mkvmerge v7.0.0 ('Where We Going') 64bit built on Jun 9 2014 15:16:27
  51. _STATISTICS_WRITING_DATE_UTC : 2014-06-13 05:58:18
  52. _STATISTICS_TAGS : BPS DURATION NUMBER_OF_FRAMES NUMBER_OF_BYTES
  53.  
  54. Audio #2
  55. ID : 2
  56. Format : AC-3
  57. Format/Info : Audio Coding 3
  58. Mode extension : CM (complete main)
  59. Format settings, Endianness : Big
  60. Codec ID : A_AC3
  61. Duration : 1h 25mn
  62. Bit rate mode : Constant
  63. Bit rate : 192 Kbps
  64. Channel count : 2 channels
  65. Channel positions : Front: L R
  66. Sampling rate : 48.0 KHz
  67. Bit depth : 16 bits
  68. Compression mode : Lossy
  69. Stream size : 118 MiB (2%)
  70. Title : ➨ VO datynet
  71. Language : Russian
  72. Default : Yes
  73. Forced : No
  74.  
  75. Audio #3
  76. ID : 3
  77. Format : DTS
  78. Format/Info : Digital Theater Systems
  79. Mode : 16
  80. Format settings, Endianness : Big
  81. Codec ID : A_DTS
  82. Duration : 1h 25mn
  83. Bit rate mode : Constant
  84. Bit rate : 1 509 Kbps
  85. Channel count : 6 channels
  86. Channel positions : Front: L C R, Side: L R, LFE
  87. Sampling rate : 48.0 KHz
  88. Bit depth : 24 bits
  89. Compression mode : Lossy
  90. Stream size : 926 MiB (19%)
  91. Title : ➨ Original
  92. Language : English
  93. Default : No
  94. Forced : No
  95.  
  96. Audio #4
  97. ID : 4
  98. Format : AC-3
  99. Format/Info : Audio Coding 3
  100. Mode extension : CM (complete main)
  101. Format settings, Endianness : Big
  102. Codec ID : A_AC3
  103. Duration : 1h 25mn
  104. Bit rate mode : Constant
  105. Bit rate : 640 Kbps
  106. Channel count : 6 channels
  107. Channel positions : Front: L C R, Side: L R, LFE
  108. Sampling rate : 48.0 KHz
  109. Bit depth : 16 bits
  110. Compression mode : Lossy
  111. Stream size : 393 MiB (8%)
  112. Title : ➨ Original
  113. Language : English
  114. Default : No
  115. Forced : No
  116.  
  117. Text #5
  118. ID : 5
  119. Format : VobSub
  120. Muxing mode : zlib
  121. Codec ID : S_VOBSUB
  122. Codec ID/Info : The same subtitle format used on DVDs
  123. Title : ➨ Full
  124. Language : English
  125. Default : No
  126. Forced : No
  127.  
  128. Text #6
  129. ID : 6
  130. Format : VobSub
  131. Muxing mode : zlib
  132. Codec ID : S_VOBSUB
  133. Codec ID/Info : The same subtitle format used on DVDs
  134. Title : ➨ SDH
  135. Language : English
  136. Default : No
  137. Forced : No
  138.  
  139. Text #7
  140. ID : 7
  141. Format : VobSub
  142. Muxing mode : zlib
  143. Codec ID : S_VOBSUB
  144. Codec ID/Info : The same subtitle format used on DVDs
  145. Title : ➨ Full
  146. Language : Spanish
  147. Default : No
  148. Forced : No
  149.  
  150. Menu
  151. 00:00:00.000 : en: ➨ HDR 01
  152. 00:04:46.495 : en: ➨ HDR 02
  153. 00:09:52.133 : en: ➨ HDR 03
  154. 00:15:36.102 : en: ➨ HDR 04
  155. 00:18:40.244 : en: ➨ HDR 05
  156. 00:28:27.539 : en: ➨ HDR 06
  157. 00:35:15.780 : en: ➨ HDR 07
  158. 00:38:58.586 : en: ➨ HDR 08
  159. 00:43:48.000 : en: ➨ HDR 09
  160. 00:47:27.678 : en: ➨ HDR 10
  161. 00:50:34.281 : en: ➨ HDR 11
  162. 00:54:14.751 : en: ➨ HDR 12
  163. 01:01:20.552 : en: ➨ HDR 13
  164. 01:10:33.354 : en: ➨ HDR 14
  165. 01:16:33.297 : en: ➨ HDR 15
  166. 01:19:30.516 : en: ➨ HDR 16
RAW Paste Data