Henry_Kr

WI-S01

Aug 11th, 2021
23
Never
Not a member of Pastebin yet? Sign Up, it unlocks many cool features!
  1. Video
  2. ID : 1
  3. Format : AVC
  4. Format/Info : Advanced Video Codec
  5. Format profile : High@L4
  6. Format settings : CABAC / 4 Ref Frames
  7. Format settings, CABAC : Yes
  8. Format settings, Reference : 4 frames
  9. Muxing mode : Header stripping
  10. Codec ID : V_MPEG4/ISO/AVC
  11. Duration : 31 min 12 s
  12. Bit rate mode : Variable
  13. Bit rate : 6 152 kb/s
  14. Maximum bit rate : 12.7 Mb/s
  15. Width : 1 920 pixels
  16. Height : 1 080 pixels
  17. Display aspect ratio : 16:9
  18. Frame rate mode : Constant
  19. Frame rate : 24.000 FPS
  20. Color space : YUV
  21. Chroma subsampling : 4:2:0
  22. Bit depth : 8 bits
  23. Scan type : Progressive
  24. Bits/(Pixel*Frame) : 0.124
  25. Stream size : 1.34 GiB (84%)
  26. Title : What.If.2021.S01E01.1080p.DSNP.WEB.[CartoonNOW]
  27. Language : English
  28. Default : Yes
  29. Forced : No
  30. Color range : Limited
  31. Color primaries : BT.709
  32. Transfer characteristics : BT.709
  33. Matrix coefficients : BT.709
  34.  
  35. Audio #1
  36. ID : 2
  37. Format : E-AC-3
  38. Format/Info : Enhanced AC-3
  39. Commercial name : Dolby Digital Plus
  40. Muxing mode : Header stripping
  41. Codec ID : A_EAC3
  42. Duration : 31 min 12 s
  43. Bit rate mode : Constant
  44. Bit rate : 256 kb/s
  45. Channel(s) : 6 channels
  46. Channel layout : L R C LFE Ls Rs
  47. Sampling rate : 48.0 kHz
  48. Frame rate : 31.250 FPS (1536 SPF)
  49. Compression mode : Lossy
  50. Delay relative to video : 8 ms
  51. Stream size : 57.2 MiB (3%)
  52. Title : E-AC3 5.1
  53. Language : Portuguese
  54. Service kind : Complete Main
  55. Default : Yes
  56. Forced : No
  57.  
  58. Audio #2
  59. ID : 3
  60. Format : E-AC-3 JOC
  61. Format/Info : Enhanced AC-3 with Joint Object Coding
  62. Commercial name : Dolby Digital Plus with Dolby Atmos
  63. Muxing mode : Header stripping
  64. Codec ID : A_EAC3
  65. Duration : 31 min 12 s
  66. Bit rate mode : Constant
  67. Bit rate : 768 kb/s
  68. Channel(s) : 6 channels
  69. Channel layout : L R C LFE Ls Rs
  70. Sampling rate : 48.0 kHz
  71. Frame rate : 31.250 FPS (1536 SPF)
  72. Compression mode : Lossy
  73. Stream size : 171 MiB (10%)
  74. Title : E-AC3 5.1
  75. Language : English
  76. Service kind : Complete Main
  77. Default : No
  78. Forced : No
  79. Complexity index : 16
  80. Number of dynamic objects : 15
  81. Bed channel count : 1 channel
  82. Bed channel configuration : LFE
  83.  
  84. Text #1
  85. ID : 4
  86. Format : ASS
  87. Codec ID : S_TEXT/ASS
  88. Codec ID/Info : Advanced Sub Station Alpha
  89. Compression mode : Lossless
  90. Title : Forçada
  91. Language : Portuguese
  92. Default : No
  93. Forced : Yes
  94.  
  95. Text #2
  96. ID : 5
  97. Format : UTF-8
  98. Codec ID : S_TEXT/UTF8
  99. Codec ID/Info : UTF-8 Plain Text
  100. Title : Completa
  101. Language : Portuguese
  102. Default : No
  103. Forced : No
RAW Paste Data