SHARE
TWEET

Untitled

a guest Apr 13th, 2019 236 Never
Not a member of Pastebin yet? Sign Up, it unlocks many cool features!
  1. General
  2. Unique ID                                : 194292994748535621553556981653366063250 (0x922B783B7267E279BCA31E94536F4092)
  3. Complete name                            : Our.Planet.2019.S01E01.One.Planet.2160p.NF.WEBRip.DDP5.1.x264-NTb.mkv
  4. Format                                   : Matroska
  5. Format version                           : Version 4
  6. File size                                : 13.3 GiB
  7. Duration                                 : 49 min 28 s
  8. Overall bit rate                         : 38.4 Mb/s
  9. Encoded date                             : UTC 2019-04-06 20:52:14
  10. Writing application                      : mkvmerge v10.0.0 ('To Drown In You') 64bit
  11. Writing library                          : libebml v1.3.4 + libmatroska v1.4.5
  12.  
  13. Video
  14. ID                                       : 1
  15. Format                                   : AVC
  16. Format/Info                              : Advanced Video Codec
  17. Format profile                           : High@L5.1
  18. Format settings                          : CABAC / 5 Ref Frames
  19. Format settings, CABAC                   : Yes
  20. Format settings, ReFrames                : 5 frames
  21. Codec ID                                 : V_MPEG4/ISO/AVC
  22. Duration                                 : 49 min 28 s
  23. Bit rate                                 : 37.6 Mb/s
  24. Width                                    : 3 840 pixels
  25. Height                                   : 2 160 pixels
  26. Display aspect ratio                     : 16:9
  27. Frame rate mode                          : Constant
  28. Frame rate                               : 23.976 (24000/1001) FPS
  29. Color space                              : YUV
  30. Chroma subsampling                       : 4:2:0
  31. Bit depth                                : 8 bits
  32. Scan type                                : Progressive
  33. Bits/(Pixel*Frame)                       : 0.189
  34. Stream size                              : 13.0 GiB (98%)
  35. Writing library                          : x264 core 148 r2744 b97ae06
  36. Encoding settings                        : cabac=1 / ref=5 / deblock=1:-3:-3 / analyse=0x3:0x133 / me=umh / subme=10 / psy=1 / psy_rd=1.00:0.00 / mixed_ref=1 / me_range=48 / chroma_me=1 / trellis=2 / 8x8dct=1 / cqm=0 / deadzone=21,11 / fast_pskip=0 / chroma_qp_offset=-2 / threads=24 / lookahead_threads=4 / sliced_threads=0 / nr=0 / decimate=0 / interlaced=0 / bluray_compat=0 / constrained_intra=0 / bframes=9 / b_pyramid=0 / b_adapt=2 / b_bias=0 / direct=3 / weightb=1 / open_gop=0 / weightp=2 / keyint=250 / keyint_min=23 / scenecut=40 / intra_refresh=0 / rc_lookahead=60 / rc=crf / mbtree=0 / crf=19.0 / qcomp=0.60 / qpmin=10 / qpmax=51 / qpstep=4 / vbv_maxrate=300000 / vbv_bufsize=300000 / crf_max=0.0 / nal_hrd=none / filler=0 / ip_ratio=1.40 / pb_ratio=1.30 / aq=3:0.75
  37. Default                                  : Yes
  38. Forced                                   : No
  39.  
  40. Audio
  41. ID                                       : 2
  42. Format                                   : E-AC-3 JOC
  43. Format/Info                              : Enhanced AC-3 with Joint Object Coding
  44. Commercial name                          : Dolby Digital Plus with Dolby Atmos
  45. Codec ID                                 : A_EAC3
  46. Duration                                 : 49 min 28 s
  47. Bit rate mode                            : Constant
  48. Bit rate                                 : 768 kb/s
  49. Channel(s)                               : 6 channels
  50. Channel layout                           : L R C LFE Ls Rs
  51. Sampling rate                            : 48.0 kHz
  52. Frame rate                               : 31.250 FPS (1536 SPF)
  53. Compression mode                         : Lossy
  54. Stream size                              : 272 MiB (2%)
  55. Language                                 : English
  56. Service kind                             : Complete Main
  57. Default                                  : Yes
  58. Forced                                   : No
  59. Complexity index                         : 16
  60. Number of dynamic objects                : 15
  61. Bed channel count                        : 1 channel
  62. Bed channel configuration                : LFE
  63.  
  64. Text #1
  65. ID                                       : 3
  66. Format                                   : UTF-8
  67. Codec ID                                 : S_TEXT/UTF8
  68. Codec ID/Info                            : UTF-8 Plain Text
  69. Duration                                 : 48 min 49 s
  70. Bit rate                                 : 51 b/s
  71. Count of elements                        : 427
  72. Stream size                              : 18.4 KiB (0%)
  73. Title                                    : SDH
  74. Language                                 : English
  75. Default                                  : No
  76. Forced                                   : No
  77.  
  78. Text #2
  79. ID                                       : 4
  80. Format                                   : UTF-8
  81. Codec ID                                 : S_TEXT/UTF8
  82. Codec ID/Info                            : UTF-8 Plain Text
  83. Duration                                 : 48 min 12 s
  84. Bit rate                                 : 65 b/s
  85. Count of elements                        : 313
  86. Stream size                              : 23.2 KiB (0%)
  87. Language                                 : Arabic
  88. Default                                  : No
  89. Forced                                   : No
  90.  
  91. Text #3
  92. ID                                       : 5
  93. Format                                   : UTF-8
  94. Codec ID                                 : S_TEXT/UTF8
  95. Codec ID/Info                            : UTF-8 Plain Text
  96. Duration                                 : 48 min 13 s
  97. Bit rate                                 : 50 b/s
  98. Count of elements                        : 340
  99. Stream size                              : 17.9 KiB (0%)
  100. Language                                 : French
  101. Default                                  : No
  102. Forced                                   : No
  103.  
  104. Text #4
  105. ID                                       : 6
  106. Format                                   : UTF-8
  107. Codec ID                                 : S_TEXT/UTF8
  108. Codec ID/Info                            : UTF-8 Plain Text
  109. Duration                                 : 48 min 14 s
  110. Bit rate                                 : 46 b/s
  111. Count of elements                        : 316
  112. Stream size                              : 16.4 KiB (0%)
  113. Language                                 : Polish
  114. Default                                  : No
  115. Forced                                   : No
  116.  
  117. Text #5
  118. ID                                       : 7
  119. Format                                   : UTF-8
  120. Codec ID                                 : S_TEXT/UTF8
  121. Codec ID/Info                            : UTF-8 Plain Text
  122. Duration                                 : 47 min 56 s
  123. Bit rate                                 : 32 b/s
  124. Count of elements                        : 307
  125. Stream size                              : 11.5 KiB (0%)
  126. Title                                    : Traditional
  127. Language                                 : Chinese
  128. Default                                  : No
  129. Forced                                   : No
  130.  
  131.  
  132. General
  133. Unique ID                                : 222000982776146124471692358710984311591 (0xA703D583B952B293ABCE398BB1DA0327)
  134. Complete name                            : Our.Planet.2019.S01E02.Frozen.Worlds.2160p.NF.WEBRip.DDP5.1.x264-NTb.mkv
  135. Format                                   : Matroska
  136. Format version                           : Version 4
  137. File size                                : 13.7 GiB
  138. Duration                                 : 53 min 33 s
  139. Overall bit rate                         : 36.7 Mb/s
  140. Encoded date                             : UTC 2019-04-06 22:37:23
  141. Writing application                      : mkvmerge v10.0.0 ('To Drown In You') 64bit
  142. Writing library                          : libebml v1.3.4 + libmatroska v1.4.5
  143.  
  144. Video
  145. ID                                       : 1
  146. Format                                   : AVC
  147. Format/Info                              : Advanced Video Codec
  148. Format profile                           : High@L5.1
  149. Format settings                          : CABAC / 5 Ref Frames
  150. Format settings, CABAC                   : Yes
  151. Format settings, ReFrames                : 5 frames
  152. Codec ID                                 : V_MPEG4/ISO/AVC
  153. Duration                                 : 53 min 33 s
  154. Bit rate                                 : 35.9 Mb/s
  155. Width                                    : 3 840 pixels
  156. Height                                   : 2 160 pixels
  157. Display aspect ratio                     : 16:9
  158. Frame rate mode                          : Constant
  159. Frame rate                               : 23.976 (24000/1001) FPS
  160. Color space                              : YUV
  161. Chroma subsampling                       : 4:2:0
  162. Bit depth                                : 8 bits
  163. Scan type                                : Progressive
  164. Bits/(Pixel*Frame)                       : 0.180
  165. Stream size                              : 13.4 GiB (98%)
  166. Writing library                          : x264 core 148 r2744 b97ae06
  167. Encoding settings                        : cabac=1 / ref=5 / deblock=1:-3:-3 / analyse=0x3:0x133 / me=umh / subme=10 / psy=1 / psy_rd=1.00:0.00 / mixed_ref=1 / me_range=48 / chroma_me=1 / trellis=2 / 8x8dct=1 / cqm=0 / deadzone=21,11 / fast_pskip=0 / chroma_qp_offset=-2 / threads=24 / lookahead_threads=4 / sliced_threads=0 / nr=0 / decimate=0 / interlaced=0 / bluray_compat=0 / constrained_intra=0 / bframes=9 / b_pyramid=0 / b_adapt=2 / b_bias=0 / direct=3 / weightb=1 / open_gop=0 / weightp=2 / keyint=250 / keyint_min=23 / scenecut=40 / intra_refresh=0 / rc_lookahead=60 / rc=crf / mbtree=0 / crf=19.0 / qcomp=0.60 / qpmin=10 / qpmax=51 / qpstep=4 / vbv_maxrate=300000 / vbv_bufsize=300000 / crf_max=0.0 / nal_hrd=none / filler=0 / ip_ratio=1.40 / pb_ratio=1.30 / aq=3:0.75
  168. Default                                  : Yes
  169. Forced                                   : No
  170.  
  171. Audio
  172. ID                                       : 2
  173. Format                                   : E-AC-3 JOC
  174. Format/Info                              : Enhanced AC-3 with Joint Object Coding
  175. Commercial name                          : Dolby Digital Plus with Dolby Atmos
  176. Codec ID                                 : A_EAC3
  177. Duration                                 : 53 min 33 s
  178. Bit rate mode                            : Constant
  179. Bit rate                                 : 768 kb/s
  180. Channel(s)                               : 6 channels
  181. Channel layout                           : L R C LFE Ls Rs
  182. Sampling rate                            : 48.0 kHz
  183. Frame rate                               : 31.250 FPS (1536 SPF)
  184. Compression mode                         : Lossy
  185. Stream size                              : 294 MiB (2%)
  186. Language                                 : English
  187. Service kind                             : Complete Main
  188. Default                                  : Yes
  189. Forced                                   : No
  190. Complexity index                         : 16
  191. Number of dynamic objects                : 15
  192. Bed channel count                        : 1 channel
  193. Bed channel configuration                : LFE
  194.  
  195. Text #1
  196. ID                                       : 3
  197. Format                                   : UTF-8
  198. Codec ID                                 : S_TEXT/UTF8
  199. Codec ID/Info                            : UTF-8 Plain Text
  200. Duration                                 : 52 min 38 s
  201. Bit rate                                 : 45 b/s
  202. Count of elements                        : 331
  203. Stream size                              : 17.6 KiB (0%)
  204. Title                                    : SDH
  205. Language                                 : English
  206. Default                                  : No
  207. Forced                                   : No
  208.  
  209. Text #2
  210. ID                                       : 4
  211. Format                                   : UTF-8
  212. Codec ID                                 : S_TEXT/UTF8
  213. Codec ID/Info                            : UTF-8 Plain Text
  214. Duration                                 : 52 min 18 s
  215. Bit rate                                 : 65 b/s
  216. Count of elements                        : 308
  217. Stream size                              : 24.9 KiB (0%)
  218. Language                                 : Arabic
  219. Default                                  : No
  220. Forced                                   : No
  221.  
  222. Text #3
  223. ID                                       : 5
  224. Format                                   : UTF-8
  225. Codec ID                                 : S_TEXT/UTF8
  226. Codec ID/Info                            : UTF-8 Plain Text
  227. Duration                                 : 52 min 18 s
  228. Bit rate                                 : 48 b/s
  229. Count of elements                        : 321
  230. Stream size                              : 18.7 KiB (0%)
  231. Language                                 : French
  232. Default                                  : No
  233. Forced                                   : No
  234.  
  235. Text #4
  236. ID                                       : 6
  237. Format                                   : UTF-8
  238. Codec ID                                 : S_TEXT/UTF8
  239. Codec ID/Info                            : UTF-8 Plain Text
  240. Duration                                 : 52 min 18 s
  241. Bit rate                                 : 45 b/s
  242. Count of elements                        : 306
  243. Stream size                              : 17.4 KiB (0%)
  244. Language                                 : Polish
  245. Default                                  : No
  246. Forced                                   : No
  247.  
  248. Text #5
  249. ID                                       : 7
  250. Format                                   : UTF-8
  251. Codec ID                                 : S_TEXT/UTF8
  252. Codec ID/Info                            : UTF-8 Plain Text
  253. Duration                                 : 52 min 18 s
  254. Bit rate                                 : 33 b/s
  255. Count of elements                        : 309
  256. Stream size                              : 12.8 KiB (0%)
  257. Title                                    : Traditional
  258. Language                                 : Chinese
  259. Default                                  : No
  260. Forced                                   : No
  261.  
  262. Menu
  263. 00:00:05.005                             : en:Intro start
  264. 00:01:27.129                             : en:Intro end
  265.  
  266.  
  267. General
  268. Unique ID                                : 172021699385535121928386507090887586148 (0x816A2C97EB3BB9FEB5F6A94EE2A63164)
  269. Complete name                            : Our.Planet.2019.S01E03.Jungles.2160p.NF.WEBRip.DDP5.1.x264-NTb.mkv
  270. Format                                   : Matroska
  271. Format version                           : Version 4
  272. File size                                : 15.4 GiB
  273. Duration                                 : 50 min 58 s
  274. Overall bit rate                         : 43.2 Mb/s
  275. Encoded date                             : UTC 2019-04-07 11:24:58
  276. Writing application                      : mkvmerge v10.0.0 ('To Drown In You') 64bit
  277. Writing library                          : libebml v1.3.4 + libmatroska v1.4.5
  278.  
  279. Video
  280. ID                                       : 1
  281. Format                                   : AVC
  282. Format/Info                              : Advanced Video Codec
  283. Format profile                           : High@L5.1
  284. Format settings                          : CABAC / 5 Ref Frames
  285. Format settings, CABAC                   : Yes
  286. Format settings, ReFrames                : 5 frames
  287. Codec ID                                 : V_MPEG4/ISO/AVC
  288. Duration                                 : 50 min 58 s
  289. Bit rate                                 : 42.5 Mb/s
  290. Width                                    : 3 840 pixels
  291. Height                                   : 2 160 pixels
  292. Display aspect ratio                     : 16:9
  293. Frame rate mode                          : Constant
  294. Frame rate                               : 23.976 (24000/1001) FPS
  295. Color space                              : YUV
  296. Chroma subsampling                       : 4:2:0
  297. Bit depth                                : 8 bits
  298. Scan type                                : Progressive
  299. Bits/(Pixel*Frame)                       : 0.214
  300. Stream size                              : 15.1 GiB (98%)
  301. Writing library                          : x264 core 148 r2744 b97ae06
  302. Encoding settings                        : cabac=1 / ref=5 / deblock=1:-3:-3 / analyse=0x3:0x133 / me=umh / subme=10 / psy=1 / psy_rd=1.00:0.00 / mixed_ref=1 / me_range=48 / chroma_me=1 / trellis=2 / 8x8dct=1 / cqm=0 / deadzone=21,11 / fast_pskip=0 / chroma_qp_offset=-2 / threads=24 / lookahead_threads=4 / sliced_threads=0 / nr=0 / decimate=0 / interlaced=0 / bluray_compat=0 / constrained_intra=0 / bframes=9 / b_pyramid=0 / b_adapt=2 / b_bias=0 / direct=3 / weightb=1 / open_gop=0 / weightp=2 / keyint=250 / keyint_min=23 / scenecut=40 / intra_refresh=0 / rc_lookahead=60 / rc=crf / mbtree=0 / crf=19.0 / qcomp=0.60 / qpmin=10 / qpmax=51 / qpstep=4 / vbv_maxrate=300000 / vbv_bufsize=300000 / crf_max=0.0 / nal_hrd=none / filler=0 / ip_ratio=1.40 / pb_ratio=1.30 / aq=3:0.75
  303. Default                                  : Yes
  304. Forced                                   : No
  305.  
  306. Audio
  307. ID                                       : 2
  308. Format                                   : E-AC-3 JOC
  309. Format/Info                              : Enhanced AC-3 with Joint Object Coding
  310. Commercial name                          : Dolby Digital Plus with Dolby Atmos
  311. Codec ID                                 : A_EAC3
  312. Duration                                 : 50 min 58 s
  313. Bit rate mode                            : Constant
  314. Bit rate                                 : 768 kb/s
  315. Channel(s)                               : 6 channels
  316. Channel layout                           : L R C LFE Ls Rs
  317. Sampling rate                            : 48.0 kHz
  318. Frame rate                               : 31.250 FPS (1536 SPF)
  319. Compression mode                         : Lossy
  320. Stream size                              : 280 MiB (2%)
  321. Language                                 : English
  322. Service kind                             : Complete Main
  323. Default                                  : Yes
  324. Forced                                   : No
  325. Complexity index                         : 16
  326. Number of dynamic objects                : 15
  327. Bed channel count                        : 1 channel
  328. Bed channel configuration                : LFE
  329.  
  330. Text #1
  331. ID                                       : 3
  332. Format                                   : UTF-8
  333. Codec ID                                 : S_TEXT/UTF8
  334. Codec ID/Info                            : UTF-8 Plain Text
  335. Duration                                 : 50 min 3 s
  336. Bit rate                                 : 61 b/s
  337. Count of elements                        : 433
  338. Stream size                              : 22.7 KiB (0%)
  339. Title                                    : SDH
  340. Language                                 : English
  341. Default                                  : No
  342. Forced                                   : No
  343.  
  344. Text #2
  345. ID                                       : 4
  346. Format                                   : UTF-8
  347. Codec ID                                 : S_TEXT/UTF8
  348. Codec ID/Info                            : UTF-8 Plain Text
  349. Duration                                 : 49 min 43 s
  350. Bit rate                                 : 87 b/s
  351. Count of elements                        : 415
  352. Stream size                              : 31.8 KiB (0%)
  353. Language                                 : Arabic
  354. Default                                  : No
  355. Forced                                   : No
  356.  
  357. Text #3
  358. ID                                       : 5
  359. Format                                   : UTF-8
  360. Codec ID                                 : S_TEXT/UTF8
  361. Codec ID/Info                            : UTF-8 Plain Text
  362. Duration                                 : 49 min 43 s
  363. Bit rate                                 : 65 b/s
  364. Count of elements                        : 416
  365. Stream size                              : 24.0 KiB (0%)
  366. Language                                 : French
  367. Default                                  : No
  368. Forced                                   : No
  369.  
  370. Text #4
  371. ID                                       : 6
  372. Format                                   : UTF-8
  373. Codec ID                                 : S_TEXT/UTF8
  374. Codec ID/Info                            : UTF-8 Plain Text
  375. Duration                                 : 49 min 39 s
  376. Bit rate                                 : 61 b/s
  377. Count of elements                        : 407
  378. Stream size                              : 22.4 KiB (0%)
  379. Language                                 : Polish
  380. Default                                  : No
  381. Forced                                   : No
  382.  
  383. Text #5
  384. ID                                       : 7
  385. Format                                   : UTF-8
  386. Codec ID                                 : S_TEXT/UTF8
  387. Codec ID/Info                            : UTF-8 Plain Text
  388. Duration                                 : 49 min 39 s
  389. Bit rate                                 : 44 b/s
  390. Count of elements                        : 415
  391. Stream size                              : 16.3 KiB (0%)
  392. Title                                    : Traditional
  393. Language                                 : Chinese
  394. Default                                  : No
  395. Forced                                   : No
  396.  
  397. Menu
  398. 00:00:05.005                             : en:Intro start
  399. 00:01:24.835                             : en:Intro end
  400.  
  401.  
  402. General
  403. Unique ID                                : 207386667088017573280536643847859714280 (0x9C05381EE08D334F8264C82F1513B8E8)
  404. Complete name                            : Our.Planet.2019.S01E04.Coastal.Seas.2160p.NF.WEBRip.DDP5.1.x264-NTb.mkv
  405. Format                                   : Matroska
  406. Format version                           : Version 4
  407. File size                                : 18.7 GiB
  408. Duration                                 : 49 min 48 s
  409. Overall bit rate                         : 53.9 Mb/s
  410. Encoded date                             : UTC 2019-04-07 11:26:50
  411. Writing application                      : mkvmerge v10.0.0 ('To Drown In You') 64bit
  412. Writing library                          : libebml v1.3.4 + libmatroska v1.4.5
  413.  
  414. Video
  415. ID                                       : 1
  416. Format                                   : AVC
  417. Format/Info                              : Advanced Video Codec
  418. Format profile                           : High@L5.1
  419. Format settings                          : CABAC / 5 Ref Frames
  420. Format settings, CABAC                   : Yes
  421. Format settings, ReFrames                : 5 frames
  422. Codec ID                                 : V_MPEG4/ISO/AVC
  423. Duration                                 : 49 min 48 s
  424. Bit rate                                 : 53.1 Mb/s
  425. Width                                    : 3 840 pixels
  426. Height                                   : 2 160 pixels
  427. Display aspect ratio                     : 16:9
  428. Frame rate mode                          : Constant
  429. Frame rate                               : 23.976 (24000/1001) FPS
  430. Color space                              : YUV
  431. Chroma subsampling                       : 4:2:0
  432. Bit depth                                : 8 bits
  433. Scan type                                : Progressive
  434. Bits/(Pixel*Frame)                       : 0.267
  435. Stream size                              : 18.5 GiB (99%)
  436. Writing library                          : x264 core 148 r2744 b97ae06
  437. Encoding settings                        : cabac=1 / ref=5 / deblock=1:-3:-3 / analyse=0x3:0x133 / me=umh / subme=10 / psy=1 / psy_rd=1.00:0.00 / mixed_ref=1 / me_range=48 / chroma_me=1 / trellis=2 / 8x8dct=1 / cqm=0 / deadzone=21,11 / fast_pskip=0 / chroma_qp_offset=-2 / threads=24 / lookahead_threads=4 / sliced_threads=0 / nr=0 / decimate=0 / interlaced=0 / bluray_compat=0 / constrained_intra=0 / bframes=9 / b_pyramid=0 / b_adapt=2 / b_bias=0 / direct=3 / weightb=1 / open_gop=0 / weightp=2 / keyint=250 / keyint_min=23 / scenecut=40 / intra_refresh=0 / rc_lookahead=60 / rc=crf / mbtree=0 / crf=19.0 / qcomp=0.60 / qpmin=10 / qpmax=51 / qpstep=4 / vbv_maxrate=300000 / vbv_bufsize=300000 / crf_max=0.0 / nal_hrd=none / filler=0 / ip_ratio=1.40 / pb_ratio=1.30 / aq=3:0.75
  438. Default                                  : Yes
  439. Forced                                   : No
  440.  
  441. Audio
  442. ID                                       : 2
  443. Format                                   : E-AC-3 JOC
  444. Format/Info                              : Enhanced AC-3 with Joint Object Coding
  445. Commercial name                          : Dolby Digital Plus with Dolby Atmos
  446. Codec ID                                 : A_EAC3
  447. Duration                                 : 49 min 48 s
  448. Bit rate mode                            : Constant
  449. Bit rate                                 : 768 kb/s
  450. Channel(s)                               : 6 channels
  451. Channel layout                           : L R C LFE Ls Rs
  452. Sampling rate                            : 48.0 kHz
  453. Frame rate                               : 31.250 FPS (1536 SPF)
  454. Compression mode                         : Lossy
  455. Stream size                              : 274 MiB (1%)
  456. Language                                 : English
  457. Service kind                             : Complete Main
  458. Default                                  : Yes
  459. Forced                                   : No
  460. Complexity index                         : 16
  461. Number of dynamic objects                : 15
  462. Bed channel count                        : 1 channel
  463. Bed channel configuration                : LFE
  464.  
  465. Text #1
  466. ID                                       : 3
  467. Format                                   : UTF-8
  468. Codec ID                                 : S_TEXT/UTF8
  469. Codec ID/Info                            : UTF-8 Plain Text
  470. Duration                                 : 49 min 7 s
  471. Bit rate                                 : 47 b/s
  472. Count of elements                        : 307
  473. Stream size                              : 17.2 KiB (0%)
  474. Title                                    : SDH
  475. Language                                 : English
  476. Default                                  : No
  477. Forced                                   : No
  478.  
  479. Text #2
  480. ID                                       : 4
  481. Format                                   : UTF-8
  482. Codec ID                                 : S_TEXT/UTF8
  483. Codec ID/Info                            : UTF-8 Plain Text
  484. Duration                                 : 48 min 33 s
  485. Bit rate                                 : 69 b/s
  486. Count of elements                        : 291
  487. Stream size                              : 24.7 KiB (0%)
  488. Language                                 : Arabic
  489. Default                                  : No
  490. Forced                                   : No
  491.  
  492. Text #3
  493. ID                                       : 5
  494. Format                                   : UTF-8
  495. Codec ID                                 : S_TEXT/UTF8
  496. Codec ID/Info                            : UTF-8 Plain Text
  497. Duration                                 : 48 min 33 s
  498. Bit rate                                 : 51 b/s
  499. Count of elements                        : 306
  500. Stream size                              : 18.3 KiB (0%)
  501. Language                                 : French
  502. Default                                  : No
  503. Forced                                   : No
  504.  
  505. Text #4
  506. ID                                       : 6
  507. Format                                   : UTF-8
  508. Codec ID                                 : S_TEXT/UTF8
  509. Codec ID/Info                            : UTF-8 Plain Text
  510. Duration                                 : 48 min 33 s
  511. Bit rate                                 : 48 b/s
  512. Count of elements                        : 297
  513. Stream size                              : 17.2 KiB (0%)
  514. Language                                 : Polish
  515. Default                                  : No
  516. Forced                                   : No
  517.  
  518. Text #5
  519. ID                                       : 7
  520. Format                                   : UTF-8
  521. Codec ID                                 : S_TEXT/UTF8
  522. Codec ID/Info                            : UTF-8 Plain Text
  523. Duration                                 : 48 min 33 s
  524. Bit rate                                 : 35 b/s
  525. Count of elements                        : 288
  526. Stream size                              : 12.5 KiB (0%)
  527. Title                                    : Traditional
  528. Language                                 : Chinese
  529. Default                                  : No
  530. Forced                                   : No
  531.  
  532. Menu
  533. 00:00:05.005                             : en:Intro start
  534. 00:01:27.087                             : en:Intro end
  535.  
  536.  
  537. General
  538. Unique ID                                : 203299132640817652193464816347571818349 (0x98F1FD1CE412C4B28DD76B2F65B40F6D)
  539. Complete name                            : Our.Planet.2019.S01E05.From.Deserts.to.Grasslands.2160p.NF.WEBRip.DDP5.1.x264-NTb.mkv
  540. Format                                   : Matroska
  541. Format version                           : Version 4
  542. File size                                : 13.4 GiB
  543. Duration                                 : 50 min 54 s
  544. Overall bit rate                         : 37.8 Mb/s
  545. Encoded date                             : UTC 2019-04-07 13:42:14
  546. Writing application                      : mkvmerge v10.0.0 ('To Drown In You') 64bit
  547. Writing library                          : libebml v1.3.4 + libmatroska v1.4.5
  548.  
  549. Video
  550. ID                                       : 1
  551. Format                                   : AVC
  552. Format/Info                              : Advanced Video Codec
  553. Format profile                           : High@L5.1
  554. Format settings                          : CABAC / 5 Ref Frames
  555. Format settings, CABAC                   : Yes
  556. Format settings, ReFrames                : 5 frames
  557. Codec ID                                 : V_MPEG4/ISO/AVC
  558. Duration                                 : 50 min 54 s
  559. Bit rate                                 : 37.0 Mb/s
  560. Width                                    : 3 840 pixels
  561. Height                                   : 2 160 pixels
  562. Display aspect ratio                     : 16:9
  563. Frame rate mode                          : Constant
  564. Frame rate                               : 23.976 (24000/1001) FPS
  565. Color space                              : YUV
  566. Chroma subsampling                       : 4:2:0
  567. Bit depth                                : 8 bits
  568. Scan type                                : Progressive
  569. Bits/(Pixel*Frame)                       : 0.186
  570. Stream size                              : 13.2 GiB (98%)
  571. Writing library                          : x264 core 148 r2744 b97ae06
  572. Encoding settings                        : cabac=1 / ref=5 / deblock=1:-3:-3 / analyse=0x3:0x133 / me=umh / subme=10 / psy=1 / psy_rd=1.00:0.00 / mixed_ref=1 / me_range=48 / chroma_me=1 / trellis=2 / 8x8dct=1 / cqm=0 / deadzone=21,11 / fast_pskip=0 / chroma_qp_offset=-2 / threads=24 / lookahead_threads=4 / sliced_threads=0 / nr=0 / decimate=0 / interlaced=0 / bluray_compat=0 / constrained_intra=0 / bframes=9 / b_pyramid=0 / b_adapt=2 / b_bias=0 / direct=3 / weightb=1 / open_gop=0 / weightp=2 / keyint=250 / keyint_min=23 / scenecut=40 / intra_refresh=0 / rc_lookahead=60 / rc=crf / mbtree=0 / crf=19.0 / qcomp=0.60 / qpmin=10 / qpmax=51 / qpstep=4 / vbv_maxrate=300000 / vbv_bufsize=300000 / crf_max=0.0 / nal_hrd=none / filler=0 / ip_ratio=1.40 / pb_ratio=1.30 / aq=3:0.75
  573. Default                                  : Yes
  574. Forced                                   : No
  575.  
  576. Audio
  577. ID                                       : 2
  578. Format                                   : E-AC-3 JOC
  579. Format/Info                              : Enhanced AC-3 with Joint Object Coding
  580. Commercial name                          : Dolby Digital Plus with Dolby Atmos
  581. Codec ID                                 : A_EAC3
  582. Duration                                 : 50 min 54 s
  583. Bit rate mode                            : Constant
  584. Bit rate                                 : 768 kb/s
  585. Channel(s)                               : 6 channels
  586. Channel layout                           : L R C LFE Ls Rs
  587. Sampling rate                            : 48.0 kHz
  588. Frame rate                               : 31.250 FPS (1536 SPF)
  589. Compression mode                         : Lossy
  590. Stream size                              : 280 MiB (2%)
  591. Language                                 : English
  592. Service kind                             : Complete Main
  593. Default                                  : Yes
  594. Forced                                   : No
  595. Complexity index                         : 16
  596. Number of dynamic objects                : 15
  597. Bed channel count                        : 1 channel
  598. Bed channel configuration                : LFE
  599.  
  600. Text #1
  601. ID                                       : 3
  602. Format                                   : UTF-8
  603. Codec ID                                 : S_TEXT/UTF8
  604. Codec ID/Info                            : UTF-8 Plain Text
  605. Duration                                 : 50 min 0 s
  606. Bit rate                                 : 42 b/s
  607. Count of elements                        : 315
  608. Stream size                              : 15.6 KiB (0%)
  609. Title                                    : SDH
  610. Language                                 : English
  611. Default                                  : No
  612. Forced                                   : No
  613.  
  614. Text #2
  615. ID                                       : 4
  616. Format                                   : UTF-8
  617. Codec ID                                 : S_TEXT/UTF8
  618. Codec ID/Info                            : UTF-8 Plain Text
  619. Duration                                 : 49 min 35 s
  620. Bit rate                                 : 56 b/s
  621. Count of elements                        : 292
  622. Stream size                              : 20.5 KiB (0%)
  623. Language                                 : Arabic
  624. Default                                  : No
  625. Forced                                   : No
  626.  
  627. Text #3
  628. ID                                       : 5
  629. Format                                   : UTF-8
  630. Codec ID                                 : S_TEXT/UTF8
  631. Codec ID/Info                            : UTF-8 Plain Text
  632. Duration                                 : 49 min 35 s
  633. Bit rate                                 : 45 b/s
  634. Count of elements                        : 304
  635. Stream size                              : 16.6 KiB (0%)
  636. Language                                 : French
  637. Default                                  : No
  638. Forced                                   : No
  639.  
  640. Text #4
  641. ID                                       : 6
  642. Format                                   : UTF-8
  643. Codec ID                                 : S_TEXT/UTF8
  644. Codec ID/Info                            : UTF-8 Plain Text
  645. Duration                                 : 49 min 35 s
  646. Bit rate                                 : 41 b/s
  647. Count of elements                        : 293
  648. Stream size                              : 15.0 KiB (0%)
  649. Language                                 : Polish
  650. Default                                  : No
  651. Forced                                   : No
  652.  
  653. Text #5
  654. ID                                       : 7
  655. Format                                   : UTF-8
  656. Codec ID                                 : S_TEXT/UTF8
  657. Codec ID/Info                            : UTF-8 Plain Text
  658. Duration                                 : 49 min 40 s
  659. Bit rate                                 : 29 b/s
  660. Count of elements                        : 287
  661. Stream size                              : 10.8 KiB (0%)
  662. Title                                    : Traditional
  663. Language                                 : Chinese
  664. Default                                  : No
  665. Forced                                   : No
  666.  
  667. Menu
  668. 00:00:05.005                             : en:Intro start
  669. 00:01:27.087                             : en:Intro end
  670.  
  671.  
  672. General
  673. Unique ID                                : 223757895934729357573368528485747109901 (0xA856340566120D0CAF5C841F5385B00D)
  674. Complete name                            : Our.Planet.2019.S01E06.The.High.Seas.2160p.NF.WEBRip.DDP5.1.x264-NTb.mkv
  675. Format                                   : Matroska
  676. Format version                           : Version 4
  677. File size                                : 16.1 GiB
  678. Duration                                 : 48 min 32 s
  679. Overall bit rate                         : 47.5 Mb/s
  680. Encoded date                             : UTC 2019-04-07 18:05:53
  681. Writing application                      : mkvmerge v10.0.0 ('To Drown In You') 64bit
  682. Writing library                          : libebml v1.3.4 + libmatroska v1.4.5
  683.  
  684. Video
  685. ID                                       : 1
  686. Format                                   : AVC
  687. Format/Info                              : Advanced Video Codec
  688. Format profile                           : High@L5.1
  689. Format settings                          : CABAC / 5 Ref Frames
  690. Format settings, CABAC                   : Yes
  691. Format settings, ReFrames                : 5 frames
  692. Codec ID                                 : V_MPEG4/ISO/AVC
  693. Duration                                 : 48 min 32 s
  694. Bit rate                                 : 46.7 Mb/s
  695. Width                                    : 3 840 pixels
  696. Height                                   : 2 160 pixels
  697. Display aspect ratio                     : 16:9
  698. Frame rate mode                          : Constant
  699. Frame rate                               : 23.976 (24000/1001) FPS
  700. Color space                              : YUV
  701. Chroma subsampling                       : 4:2:0
  702. Bit depth                                : 8 bits
  703. Scan type                                : Progressive
  704. Bits/(Pixel*Frame)                       : 0.235
  705. Stream size                              : 15.9 GiB (98%)
  706. Writing library                          : x264 core 148 r2744 b97ae06
  707. Encoding settings                        : cabac=1 / ref=5 / deblock=1:-3:-3 / analyse=0x3:0x133 / me=umh / subme=10 / psy=1 / psy_rd=1.00:0.00 / mixed_ref=1 / me_range=48 / chroma_me=1 / trellis=2 / 8x8dct=1 / cqm=0 / deadzone=21,11 / fast_pskip=0 / chroma_qp_offset=-2 / threads=24 / lookahead_threads=4 / sliced_threads=0 / nr=0 / decimate=0 / interlaced=0 / bluray_compat=0 / constrained_intra=0 / bframes=9 / b_pyramid=0 / b_adapt=2 / b_bias=0 / direct=3 / weightb=1 / open_gop=0 / weightp=2 / keyint=250 / keyint_min=23 / scenecut=40 / intra_refresh=0 / rc_lookahead=60 / rc=crf / mbtree=0 / crf=19.0 / qcomp=0.60 / qpmin=10 / qpmax=51 / qpstep=4 / vbv_maxrate=300000 / vbv_bufsize=300000 / crf_max=0.0 / nal_hrd=none / filler=0 / ip_ratio=1.40 / pb_ratio=1.30 / aq=3:0.75
  708. Default                                  : Yes
  709. Forced                                   : No
  710.  
  711. Audio
  712. ID                                       : 2
  713. Format                                   : E-AC-3 JOC
  714. Format/Info                              : Enhanced AC-3 with Joint Object Coding
  715. Commercial name                          : Dolby Digital Plus with Dolby Atmos
  716. Codec ID                                 : A_EAC3
  717. Duration                                 : 48 min 32 s
  718. Bit rate mode                            : Constant
  719. Bit rate                                 : 768 kb/s
  720. Channel(s)                               : 6 channels
  721. Channel layout                           : L R C LFE Ls Rs
  722. Sampling rate                            : 48.0 kHz
  723. Frame rate                               : 31.250 FPS (1536 SPF)
  724. Compression mode                         : Lossy
  725. Stream size                              : 267 MiB (2%)
  726. Language                                 : English
  727. Service kind                             : Complete Main
  728. Default                                  : Yes
  729. Forced                                   : No
  730. Complexity index                         : 16
  731. Number of dynamic objects                : 15
  732. Bed channel count                        : 1 channel
  733. Bed channel configuration                : LFE
  734.  
  735. Text #1
  736. ID                                       : 3
  737. Format                                   : UTF-8
  738. Codec ID                                 : S_TEXT/UTF8
  739. Codec ID/Info                            : UTF-8 Plain Text
  740. Duration                                 : 47 min 53 s
  741. Bit rate                                 : 53 b/s
  742. Count of elements                        : 356
  743. Stream size                              : 18.9 KiB (0%)
  744. Title                                    : SDH
  745. Language                                 : English
  746. Default                                  : No
  747. Forced                                   : No
  748.  
  749. Text #2
  750. ID                                       : 4
  751. Format                                   : UTF-8
  752. Codec ID                                 : S_TEXT/UTF8
  753. Codec ID/Info                            : UTF-8 Plain Text
  754. Duration                                 : 47 min 17 s
  755. Bit rate                                 : 75 b/s
  756. Count of elements                        : 338
  757. Stream size                              : 26.2 KiB (0%)
  758. Language                                 : Arabic
  759. Default                                  : No
  760. Forced                                   : No
  761.  
  762. Text #3
  763. ID                                       : 5
  764. Format                                   : UTF-8
  765. Codec ID                                 : S_TEXT/UTF8
  766. Codec ID/Info                            : UTF-8 Plain Text
  767. Duration                                 : 47 min 17 s
  768. Bit rate                                 : 60 b/s
  769. Count of elements                        : 344
  770. Stream size                              : 21.0 KiB (0%)
  771. Language                                 : French
  772. Default                                  : No
  773. Forced                                   : No
  774.  
  775. Text #4
  776. ID                                       : 6
  777. Format                                   : UTF-8
  778. Codec ID                                 : S_TEXT/UTF8
  779. Codec ID/Info                            : UTF-8 Plain Text
  780. Duration                                 : 47 min 17 s
  781. Bit rate                                 : 56 b/s
  782. Count of elements                        : 328
  783. Stream size                              : 19.4 KiB (0%)
  784. Language                                 : Polish
  785. Default                                  : No
  786. Forced                                   : No
  787.  
  788. Text #5
  789. ID                                       : 7
  790. Format                                   : UTF-8
  791. Codec ID                                 : S_TEXT/UTF8
  792. Codec ID/Info                            : UTF-8 Plain Text
  793. Duration                                 : 47 min 17 s
  794. Bit rate                                 : 39 b/s
  795. Count of elements                        : 332
  796. Stream size                              : 13.6 KiB (0%)
  797. Title                                    : Traditional
  798. Language                                 : Chinese
  799. Default                                  : No
  800. Forced                                   : No
  801.  
  802. Menu
  803. 00:00:05.005                             : en:Intro start
  804. 00:01:27.087                             : en:Intro end
  805.  
  806.  
  807. General
  808. Unique ID                                : 184833980741275078856269797723657382010 (0x8B0DBAD5CF8670A3876005F1ADEEA87A)
  809. Complete name                            : Our.Planet.2019.S01E07.Fresh.Water.2160p.NF.WEBRip.DDP5.1.x264-NTb.mkv
  810. Format                                   : Matroska
  811. Format version                           : Version 4
  812. File size                                : 14.7 GiB
  813. Duration                                 : 48 min 44 s
  814. Overall bit rate                         : 43.2 Mb/s
  815. Encoded date                             : UTC 2019-04-07 22:54:08
  816. Writing application                      : mkvmerge v10.0.0 ('To Drown In You') 64bit
  817. Writing library                          : libebml v1.3.4 + libmatroska v1.4.5
  818.  
  819. Video
  820. ID                                       : 1
  821. Format                                   : AVC
  822. Format/Info                              : Advanced Video Codec
  823. Format profile                           : High@L5.1
  824. Format settings                          : CABAC / 5 Ref Frames
  825. Format settings, CABAC                   : Yes
  826. Format settings, ReFrames                : 5 frames
  827. Codec ID                                 : V_MPEG4/ISO/AVC
  828. Duration                                 : 48 min 44 s
  829. Bit rate                                 : 42.5 Mb/s
  830. Width                                    : 3 840 pixels
  831. Height                                   : 2 160 pixels
  832. Display aspect ratio                     : 16:9
  833. Frame rate mode                          : Constant
  834. Frame rate                               : 23.976 (24000/1001) FPS
  835. Color space                              : YUV
  836. Chroma subsampling                       : 4:2:0
  837. Bit depth                                : 8 bits
  838. Scan type                                : Progressive
  839. Bits/(Pixel*Frame)                       : 0.214
  840. Stream size                              : 14.5 GiB (98%)
  841. Writing library                          : x264 core 148 r2744 b97ae06
  842. Encoding settings                        : cabac=1 / ref=5 / deblock=1:-3:-3 / analyse=0x3:0x133 / me=umh / subme=10 / psy=1 / psy_rd=1.00:0.00 / mixed_ref=1 / me_range=48 / chroma_me=1 / trellis=2 / 8x8dct=1 / cqm=0 / deadzone=21,11 / fast_pskip=0 / chroma_qp_offset=-2 / threads=24 / lookahead_threads=4 / sliced_threads=0 / nr=0 / decimate=0 / interlaced=0 / bluray_compat=0 / constrained_intra=0 / bframes=9 / b_pyramid=0 / b_adapt=2 / b_bias=0 / direct=3 / weightb=1 / open_gop=0 / weightp=2 / keyint=250 / keyint_min=23 / scenecut=40 / intra_refresh=0 / rc_lookahead=60 / rc=crf / mbtree=0 / crf=19.0 / qcomp=0.60 / qpmin=10 / qpmax=51 / qpstep=4 / vbv_maxrate=300000 / vbv_bufsize=300000 / crf_max=0.0 / nal_hrd=none / filler=0 / ip_ratio=1.40 / pb_ratio=1.30 / aq=3:0.75
  843. Default                                  : Yes
  844. Forced                                   : No
  845.  
  846. Audio
  847. ID                                       : 2
  848. Format                                   : E-AC-3 JOC
  849. Format/Info                              : Enhanced AC-3 with Joint Object Coding
  850. Commercial name                          : Dolby Digital Plus with Dolby Atmos
  851. Codec ID                                 : A_EAC3
  852. Duration                                 : 48 min 44 s
  853. Bit rate mode                            : Constant
  854. Bit rate                                 : 768 kb/s
  855. Channel(s)                               : 6 channels
  856. Channel layout                           : L R C LFE Ls Rs
  857. Sampling rate                            : 48.0 kHz
  858. Frame rate                               : 31.250 FPS (1536 SPF)
  859. Compression mode                         : Lossy
  860. Stream size                              : 268 MiB (2%)
  861. Language                                 : English
  862. Service kind                             : Complete Main
  863. Default                                  : Yes
  864. Forced                                   : No
  865. Complexity index                         : 16
  866. Number of dynamic objects                : 15
  867. Bed channel count                        : 1 channel
  868. Bed channel configuration                : LFE
  869.  
  870. Text #1
  871. ID                                       : 3
  872. Format                                   : UTF-8
  873. Codec ID                                 : S_TEXT/UTF8
  874. Codec ID/Info                            : UTF-8 Plain Text
  875. Duration                                 : 48 min 4 s
  876. Bit rate                                 : 53 b/s
  877. Count of elements                        : 351
  878. Stream size                              : 18.9 KiB (0%)
  879. Title                                    : SDH
  880. Language                                 : English
  881. Default                                  : No
  882. Forced                                   : No
  883.  
  884. Text #2
  885. ID                                       : 4
  886. Format                                   : UTF-8
  887. Codec ID                                 : S_TEXT/UTF8
  888. Codec ID/Info                            : UTF-8 Plain Text
  889. Duration                                 : 47 min 27 s
  890. Bit rate                                 : 75 b/s
  891. Count of elements                        : 340
  892. Stream size                              : 26.2 KiB (0%)
  893. Language                                 : Arabic
  894. Default                                  : No
  895. Forced                                   : No
  896.  
  897. Text #3
  898. ID                                       : 5
  899. Format                                   : UTF-8
  900. Codec ID                                 : S_TEXT/UTF8
  901. Codec ID/Info                            : UTF-8 Plain Text
  902. Duration                                 : 47 min 25 s
  903. Bit rate                                 : 57 b/s
  904. Count of elements                        : 342
  905. Stream size                              : 19.9 KiB (0%)
  906. Language                                 : French
  907. Default                                  : No
  908. Forced                                   : No
  909.  
  910. Text #4
  911. ID                                       : 6
  912. Format                                   : UTF-8
  913. Codec ID                                 : S_TEXT/UTF8
  914. Codec ID/Info                            : UTF-8 Plain Text
  915. Duration                                 : 47 min 27 s
  916. Bit rate                                 : 52 b/s
  917. Count of elements                        : 333
  918. Stream size                              : 18.2 KiB (0%)
  919. Language                                 : Polish
  920. Default                                  : No
  921. Forced                                   : No
  922.  
  923. Text #5
  924. ID                                       : 7
  925. Format                                   : UTF-8
  926. Codec ID                                 : S_TEXT/UTF8
  927. Codec ID/Info                            : UTF-8 Plain Text
  928. Duration                                 : 47 min 29 s
  929. Bit rate                                 : 36 b/s
  930. Count of elements                        : 329
  931. Stream size                              : 12.8 KiB (0%)
  932. Title                                    : Traditional
  933. Language                                 : Chinese
  934. Default                                  : No
  935. Forced                                   : No
  936.  
  937. Menu
  938. 00:00:05.005                             : en:Intro start
  939. 00:01:27.087                             : en:Intro end
  940.  
  941.  
  942. General
  943. Unique ID                                : 177338502096806123539593306202168362362 (0x856A2734B6C878D4A36A04C9BBB4057A)
  944. Complete name                            : Our.Planet.2019.S01E08.Forests.2160p.NF.WEBRip.DDP5.1.x264-NTb.mkv
  945. Format                                   : Matroska
  946. Format version                           : Version 4
  947. File size                                : 12.7 GiB
  948. Duration                                 : 48 min 18 s
  949. Overall bit rate                         : 37.7 Mb/s
  950. Encoded date                             : UTC 2019-04-08 00:54:44
  951. Writing application                      : mkvmerge v10.0.0 ('To Drown In You') 64bit
  952. Writing library                          : libebml v1.3.4 + libmatroska v1.4.5
  953.  
  954. Video
  955. ID                                       : 1
  956. Format                                   : AVC
  957. Format/Info                              : Advanced Video Codec
  958. Format profile                           : High@L5.1
  959. Format settings                          : CABAC / 5 Ref Frames
  960. Format settings, CABAC                   : Yes
  961. Format settings, ReFrames                : 5 frames
  962. Codec ID                                 : V_MPEG4/ISO/AVC
  963. Duration                                 : 48 min 18 s
  964. Bit rate                                 : 36.9 Mb/s
  965. Width                                    : 3 840 pixels
  966. Height                                   : 2 160 pixels
  967. Display aspect ratio                     : 16:9
  968. Frame rate mode                          : Constant
  969. Frame rate                               : 23.976 (24000/1001) FPS
  970. Color space                              : YUV
  971. Chroma subsampling                       : 4:2:0
  972. Bit depth                                : 8 bits
  973. Scan type                                : Progressive
  974. Bits/(Pixel*Frame)                       : 0.186
  975. Stream size                              : 12.5 GiB (98%)
  976. Writing library                          : x264 core 148 r2744 b97ae06
  977. Encoding settings                        : cabac=1 / ref=5 / deblock=1:-3:-3 / analyse=0x3:0x133 / me=umh / subme=10 / psy=1 / psy_rd=1.00:0.00 / mixed_ref=1 / me_range=48 / chroma_me=1 / trellis=2 / 8x8dct=1 / cqm=0 / deadzone=21,11 / fast_pskip=0 / chroma_qp_offset=-2 / threads=24 / lookahead_threads=4 / sliced_threads=0 / nr=0 / decimate=0 / interlaced=0 / bluray_compat=0 / constrained_intra=0 / bframes=9 / b_pyramid=0 / b_adapt=2 / b_bias=0 / direct=3 / weightb=1 / open_gop=0 / weightp=2 / keyint=250 / keyint_min=23 / scenecut=40 / intra_refresh=0 / rc_lookahead=60 / rc=crf / mbtree=0 / crf=19.0 / qcomp=0.60 / qpmin=10 / qpmax=51 / qpstep=4 / vbv_maxrate=300000 / vbv_bufsize=300000 / crf_max=0.0 / nal_hrd=none / filler=0 / ip_ratio=1.40 / pb_ratio=1.30 / aq=3:0.75
  978. Default                                  : Yes
  979. Forced                                   : No
  980.  
  981. Audio
  982. ID                                       : 2
  983. Format                                   : E-AC-3 JOC
  984. Format/Info                              : Enhanced AC-3 with Joint Object Coding
  985. Commercial name                          : Dolby Digital Plus with Dolby Atmos
  986. Codec ID                                 : A_EAC3
  987. Duration                                 : 48 min 18 s
  988. Bit rate mode                            : Constant
  989. Bit rate                                 : 768 kb/s
  990. Channel(s)                               : 6 channels
  991. Channel layout                           : L R C LFE Ls Rs
  992. Sampling rate                            : 48.0 kHz
  993. Frame rate                               : 31.250 FPS (1536 SPF)
  994. Compression mode                         : Lossy
  995. Stream size                              : 265 MiB (2%)
  996. Language                                 : English
  997. Service kind                             : Complete Main
  998. Default                                  : Yes
  999. Forced                                   : No
  1000. Complexity index                         : 16
  1001. Number of dynamic objects                : 15
  1002. Bed channel count                        : 1 channel
  1003. Bed channel configuration                : LFE
  1004.  
  1005. Text #1
  1006. ID                                       : 3
  1007. Format                                   : UTF-8
  1008. Codec ID                                 : S_TEXT/UTF8
  1009. Codec ID/Info                            : UTF-8 Plain Text
  1010. Duration                                 : 47 min 24 s
  1011. Bit rate                                 : 54 b/s
  1012. Count of elements                        : 345
  1013. Stream size                              : 18.9 KiB (0%)
  1014. Title                                    : SDH
  1015. Language                                 : English
  1016. Default                                  : No
  1017. Forced                                   : No
  1018.  
  1019. Text #2
  1020. ID                                       : 4
  1021. Format                                   : UTF-8
  1022. Codec ID                                 : S_TEXT/UTF8
  1023. Codec ID/Info                            : UTF-8 Plain Text
  1024. Duration                                 : 47 min 3 s
  1025. Bit rate                                 : 72 b/s
  1026. Count of elements                        : 319
  1027. Stream size                              : 24.8 KiB (0%)
  1028. Language                                 : Arabic
  1029. Default                                  : No
  1030. Forced                                   : No
  1031.  
  1032. Text #3
  1033. ID                                       : 5
  1034. Format                                   : UTF-8
  1035. Codec ID                                 : S_TEXT/UTF8
  1036. Codec ID/Info                            : UTF-8 Plain Text
  1037. Duration                                 : 47 min 3 s
  1038. Bit rate                                 : 55 b/s
  1039. Count of elements                        : 323
  1040. Stream size                              : 19.1 KiB (0%)
  1041. Language                                 : French
  1042. Default                                  : No
  1043. Forced                                   : No
  1044.  
  1045. Text #4
  1046. ID                                       : 6
  1047. Format                                   : UTF-8
  1048. Codec ID                                 : S_TEXT/UTF8
  1049. Codec ID/Info                            : UTF-8 Plain Text
  1050. Duration                                 : 47 min 3 s
  1051. Bit rate                                 : 51 b/s
  1052. Count of elements                        : 314
  1053. Stream size                              : 17.7 KiB (0%)
  1054. Language                                 : Polish
  1055. Default                                  : No
  1056. Forced                                   : No
  1057.  
  1058. Text #5
  1059. ID                                       : 7
  1060. Format                                   : UTF-8
  1061. Codec ID                                 : S_TEXT/UTF8
  1062. Codec ID/Info                            : UTF-8 Plain Text
  1063. Duration                                 : 47 min 3 s
  1064. Bit rate                                 : 38 b/s
  1065. Count of elements                        : 314
  1066. Stream size                              : 13.2 KiB (0%)
  1067. Title                                    : Traditional
  1068. Language                                 : Chinese
  1069. Default                                  : No
  1070. Forced                                   : No
  1071.  
  1072. Menu
  1073. 00:00:05.005                             : en:Intro start
  1074. 00:01:27.087                             : en:Intro end
RAW Paste Data
We use cookies for various purposes including analytics. By continuing to use Pastebin, you agree to our use of cookies as described in the Cookies Policy. OK, I Understand
 
Top