SHARE
TWEET

Untitled

mft39anton Jun 1st, 2019 90 Never
Not a member of Pastebin yet? Sign Up, it unlocks many cool features!
  1. Input #0, mpegts, from '00016.m2ts':
  2.   Duration: 01:26:46.01, start: 11.650667, bitrate: 31171 kb/s
  3.   Program 1
  4.     Stream #0:0[0x1011]: Video: h264 (High) (HDMV / 0x564D4448), yuv420p(top first), 1920x1080 [SAR 1:1 DAR 16:9], 29.97 fps, 29.97 tbr, 90k tbn, 59.94 tbc
  5.     Stream #0:1[0x1100]: Audio: pcm_bluray (HDMV / 0x564D4448), 48000 Hz, stereo, s16, 1536 kb/s
  6.     Stream #0:2[0x1200]: Subtitle: hdmv_pgs_subtitle ([144][0][0][0] / 0x0090)
  7.     Stream #0:3[0x1201]: Subtitle: hdmv_pgs_subtitle ([144][0][0][0] / 0x0090)
  8.     Stream #0:4[0x1202]: Subtitle: hdmv_pgs_subtitle ([144][0][0][0] / 0x0090)
  9. Stream mapping:
  10.   Stream #0:0 -> #0:0 (h264 (native) -> png (native))
  11. Press [q] to stop, [?] for help
  12. Output #0, image2, to 'COC_006.png':
  13.   Metadata:
  14.     encoder         : Lavf58.12.100
  15.     Stream #0:0: Video: png, rgb24, 1920x1080 [SAR 1:1 DAR 16:9], q=2-31, 200 kb/s, 29.97 fps, 29.97 tbn, 29.97 tbc
  16.     Metadata:
  17.       encoder         : Lavc58.18.100 png
  18. frame=    1 fps=0.0 q=-0.0 Lsize=N/A time=00:00:00.03 bitrate=N/A dup=1 drop=1 speed=0.104x
  19. video:2489kB audio:0kB subtitle:0kB other streams:0kB global headers:0kB muxing overhead: unknown
RAW Paste Data
We use cookies for various purposes including analytics. By continuing to use Pastebin, you agree to our use of cookies as described in the Cookies Policy. OK, I Understand
 
Top