SHARE
TWEET

Mahoutsukai no Yome 01 (2017-2018) [1080p]

a guest Mar 9th, 2019 94 Never
Not a member of Pastebin yet? Sign Up, it unlocks many cool features!
  1. General
  2. Unique ID                   : 315484361324185669548464701274688277588 (0xED5813EDB7609D86EE59E5BD37A74C54)
  3. Complete name               : Mahoutsukai no Yome 01 (2017-2018) [1080p].mkv
  4. Format                      : Matroska
  5. Format version              : Version 4
  6. File size                   : 859 MiB
  7. Duration                    : 24 min 10 s
  8. Overall bit rate            : 4 969 kb/s
  9. Encoded date                : UTC 2019-01-29 19:46:18
  10. Writing application         : mkvmerge v30.1.0 ('Forever And More') 32-bit
  11. Writing library             : libebml v1.3.6 + libmatroska v1.4.9
  12.  
  13. Video
  14. ID                          : 1
  15. Format                      : AVC
  16. Format/Info                 : Advanced Video Codec
  17. Format profile              : High@L4
  18. Format settings             : CABAC / 4 Ref Frames
  19. Format settings, CABAC      : Yes
  20. Format settings, ReFrames   : 4 frames
  21. Codec ID                    : V_MPEG4/ISO/AVC
  22. Duration                    : 24 min 8 s
  23. Bit rate                    : 4 328 kb/s
  24. Width                       : 1 920 pixels
  25. Height                      : 1 080 pixels
  26. Display aspect ratio        : 16:9
  27. Frame rate mode             : Constant
  28. Frame rate                  : 23.976 (24000/1001) FPS
  29. Color space                 : YUV
  30. Chroma subsampling          : 4:2:0
  31. Bit depth                   : 8 bits
  32. Scan type                   : Progressive
  33. Bits/(Pixel*Frame)          : 0.087
  34. Stream size                 : 747 MiB (87%)
  35. Title                       : 日本語(日本)
  36. Writing library             : x264 core 142
  37. Encoding settings           : cabac=1 / ref=4 / deblock=1:1:1 / analyse=0x3:0x113 / me=umh / subme=8 / psy=1 / psy_rd=0.40:0.00 / mixed_ref=1 / me_range=16 / chroma_me=1 / trellis=1 / 8x8dct=1 / cqm=0 / deadzone=21,11 / fast_pskip=1 / chroma_qp_offset=-2 / threads=12 / lookahead_threads=2 / sliced_threads=0 / nr=0 / decimate=1 / interlaced=0 / bluray_compat=0 / constrained_intra=0 / bframes=3 / b_pyramid=2 / b_adapt=2 / b_bias=0 / direct=3 / weightb=1 / open_gop=0 / weightp=2 / keyint=48 / keyint_min=25 / scenecut=0 / intra_refresh=0 / rc_lookahead=48 / rc=crf / mbtree=1 / crf=15.0 / qcomp=0.60 / qpmin=0 / qpmax=69 / qpstep=4 / vbv_maxrate=8000 / vbv_bufsize=12000 / crf_max=0.0 / nal_hrd=none / filler=0 / ip_ratio=1.40 / aq=1:0.60
  38. Language                    : Japanese
  39. Default                     : Yes
  40. Forced                      : No
  41.  
  42. Audio #1
  43. ID                          : 2
  44. Format                      : AAC LC
  45. Format/Info                 : Advanced Audio Codec Low Complexity
  46. Codec ID                    : A_AAC-2
  47. Duration                    : 24 min 8 s
  48. Bit rate                    : 128 kb/s
  49. Channel(s)                  : 2 channels
  50. Channel layout              : L R
  51. Sampling rate               : 44.1 kHz
  52. Frame rate                  : 43.066 FPS (1024 SPF)
  53. Compression mode            : Lossy
  54. Delay relative to video     : -83 ms
  55. Stream size                 : 22.1 MiB (3%)
  56. Title                       : Deutsch (Deutschland)
  57. Language                    : German
  58. Default                     : No
  59. Forced                      : No
  60.  
  61. Audio #2
  62. ID                          : 3
  63. Format                      : AAC LC
  64. Format/Info                 : Advanced Audio Codec Low Complexity
  65. Codec ID                    : A_AAC-2
  66. Duration                    : 24 min 10 s
  67. Bit rate                    : 128 kb/s
  68. Channel(s)                  : 2 channels
  69. Channel layout              : L R
  70. Sampling rate               : 44.1 kHz
  71. Frame rate                  : 43.066 FPS (1024 SPF)
  72. Compression mode            : Lossy
  73. Delay relative to video     : -83 ms
  74. Stream size                 : 22.1 MiB (3%)
  75. Title                       : 日本語(日本)
  76. Language                    : Japanese
  77. Default                     : No
  78. Forced                      : No
  79.  
  80. Audio #3
  81. ID                          : 4
  82. Format                      : AAC LC
  83. Format/Info                 : Advanced Audio Codec Low Complexity
  84. Codec ID                    : A_AAC-2
  85. Duration                    : 24 min 8 s
  86. Bit rate                    : 128 kb/s
  87. Channel(s)                  : 2 channels
  88. Channel layout              : L R
  89. Sampling rate               : 44.1 kHz
  90. Frame rate                  : 43.066 FPS (1024 SPF)
  91. Compression mode            : Lossy
  92. Delay relative to video     : -83 ms
  93. Stream size                 : 22.1 MiB (3%)
  94. Title                       : Português (Brasil)
  95. Language                    : Portuguese
  96. Default                     : No
  97. Forced                      : No
  98.  
  99. Audio #4
  100. ID                          : 5
  101. Format                      : AAC LC
  102. Format/Info                 : Advanced Audio Codec Low Complexity
  103. Codec ID                    : A_AAC-2
  104. Duration                    : 24 min 10 s
  105. Bit rate                    : 128 kb/s
  106. Channel(s)                  : 2 channels
  107. Channel layout              : L R
  108. Sampling rate               : 44.1 kHz
  109. Frame rate                  : 43.066 FPS (1024 SPF)
  110. Compression mode            : Lossy
  111. Delay relative to video     : -83 ms
  112. Stream size                 : 22.1 MiB (3%)
  113. Title                       : Русский (Росси́я)
  114. Language                    : Russian
  115. Default                     : No
  116. Forced                      : No
  117.  
  118. Audio #5
  119. ID                          : 6
  120. Format                      : AAC LC
  121. Format/Info                 : Advanced Audio Codec Low Complexity
  122. Codec ID                    : A_AAC-2
  123. Duration                    : 24 min 8 s
  124. Bit rate                    : 128 kb/s
  125. Channel(s)                  : 2 channels
  126. Channel layout              : L R
  127. Sampling rate               : 44.1 kHz
  128. Frame rate                  : 43.066 FPS (1024 SPF)
  129. Compression mode            : Lossy
  130. Delay relative to video     : -83 ms
  131. Stream size                 : 22.1 MiB (3%)
  132. Title                       : Español (México)
  133. Language                    : Spanish
  134. Default                     : No
  135. Forced                      : No
  136.  
  137. Text #1
  138. ID                          : 7
  139. Format                      : ASS
  140. Codec ID                    : S_TEXT/ASS
  141. Codec ID/Info               : Advanced Sub Station Alpha
  142. Duration                    : 22 min 39 s
  143. Bit rate                    : 131 b/s
  144. Count of elements           : 288
  145. Compression mode            : Lossless
  146. Stream size                 : 21.8 KiB (0%)
  147. Title                       : العربية
  148. Language                    : Arabic
  149. Default                     : No
  150. Forced                      : No
  151.  
  152. Text #2
  153. ID                          : 8
  154. Format                      : ASS
  155. Codec ID                    : S_TEXT/ASS
  156. Codec ID/Info               : Advanced Sub Station Alpha
  157. Duration                    : 22 min 39 s
  158. Bit rate                    : 108 b/s
  159. Count of elements           : 289
  160. Compression mode            : Lossless
  161. Stream size                 : 18.0 KiB (0%)
  162. Title                       : English (United States)
  163. Language                    : English
  164. Default                     : No
  165. Forced                      : No
  166.  
  167. Text #3
  168. ID                          : 9
  169. Format                      : ASS
  170. Codec ID                    : S_TEXT/ASS
  171. Codec ID/Info               : Advanced Sub Station Alpha
  172. Duration                    : 22 min 34 s
  173. Bit rate                    : 97 b/s
  174. Count of elements           : 249
  175. Compression mode            : Lossless
  176. Stream size                 : 16.1 KiB (0%)
  177. Title                       : Français (France)
  178. Language                    : French
  179. Default                     : No
  180. Forced                      : No
  181.  
  182. Text #4
  183. ID                          : 10
  184. Format                      : ASS
  185. Codec ID                    : S_TEXT/ASS
  186. Codec ID/Info               : Advanced Sub Station Alpha
  187. Duration                    : 37 s 60 ms
  188. Bit rate                    : 60 b/s
  189. Count of elements           : 3
  190. Compression mode            : Lossless
  191. Stream size                 : 280 Bytes (0%)
  192. Title                       : Deutsch (Deutschland) - [Forced]
  193. Language                    : German
  194. Default                     : No
  195. Forced                      : No
  196.  
  197. Text #5
  198. ID                          : 11
  199. Format                      : ASS
  200. Codec ID                    : S_TEXT/ASS
  201. Codec ID/Info               : Advanced Sub Station Alpha
  202. Duration                    : 22 min 39 s
  203. Bit rate                    : 111 b/s
  204. Count of elements           : 293
  205. Compression mode            : Lossless
  206. Stream size                 : 18.5 KiB (0%)
  207. Title                       : Deutsch (Deutschland)
  208. Language                    : German
  209. Default                     : No
  210. Forced                      : No
  211.  
  212. Text #6
  213. ID                          : 12
  214. Format                      : ASS
  215. Codec ID                    : S_TEXT/ASS
  216. Codec ID/Info               : Advanced Sub Station Alpha
  217. Duration                    : 22 min 39 s
  218. Bit rate                    : 124 b/s
  219. Count of elements           : 294
  220. Compression mode            : Lossless
  221. Stream size                 : 20.6 KiB (0%)
  222. Title                       : Italiano (Italia)
  223. Language                    : Italian
  224. Default                     : No
  225. Forced                      : No
  226.  
  227. Text #7
  228. ID                          : 13
  229. Format                      : ASS
  230. Codec ID                    : S_TEXT/ASS
  231. Codec ID/Info               : Advanced Sub Station Alpha
  232. Duration                    : 20 s 190 ms
  233. Bit rate                    : 44 b/s
  234. Count of elements           : 2
  235. Compression mode            : Lossless
  236. Stream size                 : 112 Bytes (0%)
  237. Title                       : Português (Brasil) - [Forced]
  238. Language                    : Portuguese
  239. Default                     : No
  240. Forced                      : No
  241.  
  242. Text #8
  243. ID                          : 14
  244. Format                      : ASS
  245. Codec ID                    : S_TEXT/ASS
  246. Codec ID/Info               : Advanced Sub Station Alpha
  247. Duration                    : 22 min 39 s
  248. Bit rate                    : 109 b/s
  249. Count of elements           : 289
  250. Compression mode            : Lossless
  251. Stream size                 : 18.2 KiB (0%)
  252. Title                       : Português (Brasil)
  253. Language                    : Portuguese
  254. Default                     : No
  255. Forced                      : No
  256.  
  257. Text #9
  258. ID                          : 15
  259. Format                      : ASS
  260. Codec ID                    : S_TEXT/ASS
  261. Codec ID/Info               : Advanced Sub Station Alpha
  262. Duration                    : 23 min 56 s
  263. Bit rate                    : 143 b/s
  264. Count of elements           : 290
  265. Compression mode            : Lossless
  266. Stream size                 : 25.2 KiB (0%)
  267. Title                       : Русский (Росси́я)
  268. Language                    : Russian
  269. Default                     : No
  270. Forced                      : No
  271.  
  272. Text #10
  273. ID                          : 16
  274. Format                      : ASS
  275. Codec ID                    : S_TEXT/ASS
  276. Codec ID/Info               : Advanced Sub Station Alpha
  277. Duration                    : 20 s 770 ms
  278. Bit rate                    : 61 b/s
  279. Count of elements           : 2
  280. Compression mode            : Lossless
  281. Stream size                 : 160 Bytes (0%)
  282. Title                       : Español (México) - [Forced]
  283. Language                    : Spanish
  284. Default                     : No
  285. Forced                      : No
  286.  
  287. Text #11
  288. ID                          : 17
  289. Format                      : ASS
  290. Codec ID                    : S_TEXT/ASS
  291. Codec ID/Info               : Advanced Sub Station Alpha
  292. Duration                    : 23 min 57 s
  293. Bit rate                    : 108 b/s
  294. Count of elements           : 284
  295. Compression mode            : Lossless
  296. Stream size                 : 19.1 KiB (0%)
  297. Title                       : Español (México)
  298. Language                    : Spanish
  299. Default                     : No
  300. Forced                      : No
  301.  
  302. Text #12
  303. ID                          : 18
  304. Format                      : ASS
  305. Codec ID                    : S_TEXT/ASS
  306. Codec ID/Info               : Advanced Sub Station Alpha
  307. Duration                    : 23 min 57 s
  308. Bit rate                    : 109 b/s
  309. Count of elements           : 288
  310. Compression mode            : Lossless
  311. Stream size                 : 19.3 KiB (0%)
  312. Title                       : Español (España)
  313. Language                    : Spanish
  314. Default                     : No
  315. Forced                      : No
RAW Paste Data
We use cookies for various purposes including analytics. By continuing to use Pastebin, you agree to our use of cookies as described in the Cookies Policy. OK, I Understand
Not a member of Pastebin yet?
Sign Up, it unlocks many cool features!
 
Top