HYBRID_BEING

[notmaifuni] Saiki Kusuo no Psi Nan (Shorts) - 11 [1080p].mkv

Aug 17th, 2016
102
Never
Not a member of Pastebin yet? Sign Up, it unlocks many cool features!
  1. General
  2. Unique ID : 247536271136555138419282683479977582489 (0xBA39C06EC7F40600521E57B69DDB5F99)
  3. Complete name : [notmaifuni] Saiki Kusuo no Psi Nan (Shorts) - 11 [1080p].mkv
  4. Format : Matroska
  5. Format version : Version 4 / Version 2
  6. File size : 127 MiB
  7. Duration : 4mn 18s
  8. Overall bit rate : 4 121 Kbps
  9. Encoded date : UTC 2016-07-17 23:32:51
  10. Writing application : mkvmerge v8.9.0 ('Father Daughter') 64bit
  11. Writing library : libebml v1.3.3 + libmatroska v1.4.4
  12.  
  13. Video
  14. ID : 1
  15. Format : AVC
  16. Format/Info : Advanced Video Codec
  17. Format profile : High@L5.1
  18. Format settings, CABAC : Yes
  19. Format settings, ReFrames : 2 frames
  20. Codec ID : V_MPEG4/ISO/AVC
  21. Duration : 4mn 18s
  22. Bit rate mode : Constant
  23. Bit rate : 4 000 Kbps
  24. Width : 1 920 pixels
  25. Height : 1 080 pixels
  26. Display aspect ratio : 16:9
  27. Frame rate mode : Constant
  28. Frame rate : 23.976 (24000/1001) fps
  29. Color space : YUV
  30. Chroma subsampling : 4:2:0
  31. Bit depth : 8 bits
  32. Scan type : Progressive
  33. Bits/(Pixel*Frame) : 0.080
  34. Stream size : 123 MiB (97%)
  35. Language : English
  36. Default : Yes
  37. Forced : No
  38. Color range : Limited
  39. Color primaries : BT.709
  40. Transfer characteristics : BT.709
  41. Matrix coefficients : BT.709
  42.  
  43. Audio
  44. ID : 2
  45. Format : AAC
  46. Format/Info : Advanced Audio Codec
  47. Format profile : LC
  48. Codec ID : A_AAC
  49. Duration : 4mn 18s
  50. Bit rate : 126 Kbps
  51. Channel(s) : 2 channels
  52. Channel positions : Front: L R
  53. Sampling rate : 44.1 KHz
  54. Frame rate : 43.066 fps (1024 spf)
  55. Compression mode : Lossy
  56. Stream size : 3.87 MiB (3%)
  57. Language : English
  58. Default : Yes
  59. Forced : No
RAW Paste Data