GrabHD

Untitled

Feb 19th, 2020
96
Never
Not a member of Pastebin yet? Sign Up, it unlocks many cool features!
  1. Формат : Matroska
  2. Версия формата : Version 4
  3. Размер файла : 16,2 Гбайт
  4. Продолжительность : 2 ч. 7 м.
  5. Общий поток : 18,1 Мбит/сек
  6. Название фильма : Moulin Rouge! (2001) HEVC-CLUB
  7. Дата кодирования : UTC 2020-02-19 18:08:35
  8. Программа кодирования : mkvmerge v43.0.0 ('The Quartermaster') 64-bit
  9. Библиотека кодирования : libebml v1.3.10 + libmatroska v1.5.2
  10. Обложка : Yes
  11. Attachments : cover.jpg
  12.  
  13. Видео
  14. Идентификатор : 1
  15. Формат : HEVC
  16. Формат/Информация : High Efficiency Video Coding
  17. Профиль формата : Main 10@L4.1@High
  18. Идентификатор кодека : V_MPEGH/ISO/HEVC
  19. Продолжительность : 2 ч. 7 м.
  20. Битрейт : 16,9 Мбит/сек
  21. Ширина : 1920 пикселей
  22. Высота : 800 пикселей
  23. Соотношение сторон : 2,40:1
  24. Режим частоты кадров : Постоянный
  25. Частота кадров : 23,976 (24000/1001) кадра/сек
  26. Цветовое пространство : YUV
  27. Субдискретизация насыщенности : 4:2:0
  28. Битовая глубина : 10 бит
  29. Бит/(Пиксели*Кадры) : 0.458
  30. Размер потока : 15,1 Гбайт (93%)
  31. Библиотека кодирования : x265 3.2+5-354901970679:[Windows][clang 8.0.1][64 bit] 10bit
  32. Настройки программы : cpuid=1049583 / frame-threads=5 / numa-pools=4 / wpp / no-pmode / no-pme / no-psnr / no-ssim / log-level=3 / input-csp=1 / input-res=1920x800 / interlace=0 / total-frames=0 / level-idc=41 / high-tier=1 / uhd-bd=0 / ref=5 / allow-non-conformance / no-repeat-headers / annexb / no-aud / no-hrd / info / hash=0 / no-temporal-layers / open-gop / min-keyint=24 / keyint=240 / gop-lookahead=0 / bframes=14 / b-adapt=2 / b-pyramid / bframe-bias=0 / rc-lookahead=40 / lookahead-slices=5 / scenecut=40 / radl=0 / no-splice / no-intra-refresh / ctu=32 / min-cu-size=8 / no-rect / no-amp / max-tu-size=32 / tu-inter-depth=4 / tu-intra-depth=4 / limit-tu=1 / rdoq-level=1 / dynamic-rd=0.00 / no-ssim-rd / signhide / no-tskip / nr-intra=0 / nr-inter=0 / no-constrained-intra / no-strong-intra-smoothing / max-merge=5 / limit-refs=1 / no-limit-modes / me=3 / subme=7 / merange=57 / temporal-mvp / no-frame-dup / no-hme / weightp / no-weightb / no-analyze-src-pics / deblock=-3:-3 / no-sao / no-sao-non-deblock / rd=3 / selective-sao=0 / early-skip / no-rskip / no-fast-intra / no-tskip-fast / no-cu-lossless / b-intra / no-splitrd-skip / rdpenalty=0 / psy-rd=2.00 / psy-rdoq=1.00 / no-rd-refine / no-lossless / cbqpoffs=0 / crqpoffs=0 / rc=crf / crf=20.0 / qcomp=0.60 / qpstep=4 / stats-write=0 / stats-read=0 / vbv-maxrate=50000 / vbv-bufsize=50000 / vbv-init=0.9 / crf-max=0.0 / crf-min=0.0 / ipratio=1.40 / pbratio=1.30 / aq-mode=3 / aq-strength=1.00 / no-cutree / zone-count=0 / no-strict-cbr / qg-size=32 / no-rc-grain / qpmax=69 / qpmin=0 / no-const-vbv / sar=1 / overscan=0 / videoformat=5 / range=0 / colorprim=1 / transfer=1 / colormatrix=1 / chromaloc=0 / display-window=0 / cll=0,0 / min-luma=0 / max-luma=1023 / log2-max-poc-lsb=8 / vui-timing-info / vui-hrd-info / slices=1 / no-opt-qp-pps / no-opt-ref-list-length-pps / no-multi-pass-opt-rps / scenecut-bias=0.05 / no-opt-cu-delta-qp / no-aq-motion / no-hdr / no-hdr-opt / no-dhdr10-opt / no-idr-recovery-sei / analysis-reuse-level=5 / scale-factor=0 / refine-intra=0 / refine-inter=0 / refine-mv=1 / refine-ctu-distortion=0 / no-limit-sao / ctu-info=0 / no-lowpass-dct / refine-analysis-type=0 / copy-pic=1 / max-ausize-factor=1.0 / no-dynamic-refine / no-single-sei / no-hevc-aq / no-svt / no-field / qp-adaptation-range=1.00
  33. Язык : English
  34. Default : Да
  35. Forced : Нет
  36. Цветовой диапазон : Limited
  37. Основные цвета : BT.709
  38. Характеристики трансфера : BT.709
  39. Коэффициенты матрицы : BT.709
  40.  
  41. Аудио #1
  42. Идентификатор : 2
  43. Формат : AC-3
  44. Формат/Информация : Audio Coding 3
  45. Коммерческое название : Dolby Digital
  46. Идентификатор кодека : A_AC3
  47. Продолжительность : 2 ч. 7 м.
  48. Вид битрейта : Постоянный
  49. Битрейт : 640 Кбит/сек
  50. Каналы : 6 каналов
  51. ChannelLayout : L R C LFE Ls Rs
  52. Частота : 48,0 КГц
  53. Частота кадров : 31,250 кадров/сек (1536 SPF)
  54. Битовая глубина : 16 бит
  55. Метод сжатия : С потерями
  56. Размер потока : 585 Мбайт (4%)
  57. Заголовок : Дубляж (Blu-ray CEE)
  58. Язык : Russian
  59. Default : Да
  60. Forced : Нет
  61.  
  62. Аудио #2
  63. Идентификатор : 3
  64. Формат : AC-3
  65. Формат/Информация : Audio Coding 3
  66. Коммерческое название : Dolby Digital
  67. Идентификатор кодека : A_AC3
  68. Продолжительность : 2 ч. 7 м.
  69. Вид битрейта : Постоянный
  70. Битрейт : 640 Кбит/сек
  71. Каналы : 6 каналов
  72. ChannelLayout : L R C LFE Ls Rs
  73. Частота : 48,0 КГц
  74. Частота кадров : 31,250 кадров/сек (1536 SPF)
  75. Битовая глубина : 16 бит
  76. Метод сжатия : С потерями
  77. Размер потока : 585 Мбайт (4%)
  78. Заголовок : Оригинал
  79. Язык : English
  80. Default : Нет
  81. Forced : Нет
  82.  
  83. Текст #1
  84. Идентификатор : 4
  85. Формат : UTF-8
  86. Идентификатор кодека : S_TEXT/UTF8
  87. Идентификатор кодека/Информация : UTF-8 Plain Text
  88. Продолжительность : 2 ч. 6 м.
  89. Битрейт : 18 бит/сек
  90. ElementCount : 315
  91. Размер потока : 17,1 Кбайт (0%)
  92. Заголовок : Forced (songs)
  93. Язык : Russian
  94. Default : Да
  95. Forced : Да
  96.  
  97. Текст #2
  98. Идентификатор : 5
  99. Формат : UTF-8
  100. Идентификатор кодека : S_TEXT/UTF8
  101. Идентификатор кодека/Информация : UTF-8 Plain Text
  102. Продолжительность : 2 ч. 6 м.
  103. Битрейт : 67 бит/сек
  104. ElementCount : 1098
  105. Размер потока : 62,3 Кбайт (0%)
  106. Заголовок : Full
  107. Язык : Russian
  108. Default : Нет
  109. Forced : Нет
  110.  
  111. Текст #3
  112. Идентификатор : 6
  113. Формат : UTF-8
  114. Идентификатор кодека : S_TEXT/UTF8
  115. Идентификатор кодека/Информация : UTF-8 Plain Text
  116. Продолжительность : 2 ч. 6 м.
  117. Битрейт : 48 бит/сек
  118. ElementCount : 1542
  119. Размер потока : 44,6 Кбайт (0%)
  120. Заголовок : Full
  121. Язык : English
  122. Default : Нет
  123. Forced : Нет
  124.  
  125. Меню
  126. 00:00:00.000 : :MAIN TITLES
  127. 00:01:19.079 : :THERE WAS A BOY...
  128. 00:05:32.666 : :MEET THE BOHEMIANS
  129. 00:10:47.355 : :AT THE MOULIN ROUGE "YOU'LL HAVE FUN"
  130. 00:13:05.785 : :THE CAN CAN (BOHOS EVADE ZIDLER)
  131. 00:14:12.143 : :SATINE - THE SPARKING DIAMOND
  132. 00:21:02.511 : :SATINE FALLS
  133. 00:25:07.756 : :A POETRY READING
  134. 00:27:36.029 : :YOUR SONG
  135. 00:31:24.633 : :INTRODUCING THE DUKE
  136. 00:35:46.478 : :THE EMERGENCY REHERSAL
  137. 00:40:06.571 : :THE PITCH
  138. 00:44:31.919 : :ONE DAY I'LL FLY AWAY
  139. 00:48:46.382 : :ELEPHANT LOVE MEDLEY
  140. 00:53:28.789 : :THE CONTRACT
  141. 00:55:08.013 : :ON WITH THE SHOW
  142. 00:57:44.044 : :THE DUKE'S DEMAND
  143. 00:59:36.281 : :A DARKER FORCE
  144. 01:01:25.765 : :LIKE A VIRGIN
  145. 01:05:43.606 : :SATIN IS DYING
  146. 01:08:01.577 : :COME WHAT MAY
  147. 01:12:44.277 : :I DON'T LIKE THIS ENDING
  148. 01:18:08.726 : :LE TANGO DE ROXANNE
  149. 01:25:32.586 : :WE'LL LIVE TINIGHT
  150. 01:27:09.182 : :I'LL HAVE THE BOY KILLED
  151. 01:29:50.010 : :FOOL TO BELIVE
  152. 01:32:02.475 : :THE SHOW MUST GO ON
  153. 01:34:57.150 : :SATINE'S SACRIFICE
  154. 01:36:20.775 : :THE STORM BREAKS
  155. 01:38:50.341 : :HINDI SAD DIAMONDS
  156. 01:42:24.597 : :THIS WOMAN IS YOURS NOW
  157. 01:47:45.459 : :COME WHAT MAY (REPRISE)
  158. 01:51:32.895 : :COUP D'ETAT
  159. 01:53:21.294 : :THE FINAL CURTAIN
  160. 01:58:41.156 : :ABOVE ALL THINGS... LOVE
  161. 02:00:24.050 : :END TITLES
RAW Paste Data