Advertisement
Henry_Kr

CBTM-2001

Jan 25th, 2022
179
0
Never
Not a member of Pastebin yet? Sign Up, it unlocks many cool features!
text 5.66 KB | None | 0 0
  1. Video
  2. ID : 1
  3. Format : AVC
  4. Format/Info : Advanced Video Codec
  5. Format profile : High@L4.1
  6. Format settings : CABAC / 4 Ref Frames
  7. Format settings, CABAC : Yes
  8. Format settings, Reference : 4 frames
  9. Codec ID : V_MPEG4/ISO/AVC
  10. Duration : 1 h 54 min
  11. Bit rate : 6 500 kb/s
  12. Width : 1 920 pixels
  13. Height : 1 038 pixels
  14. Display aspect ratio : 1.85:1
  15. Frame rate mode : Constant
  16. Frame rate : 23.976 (24000/1001) FPS
  17. Color space : YUV
  18. Chroma subsampling : 4:2:0
  19. Bit depth : 8 bits
  20. Scan type : Progressive
  21. Bits/(Pixel*Frame) : 0.136
  22. Stream size : 5.22 GiB (60%)
  23. Title : Cowboy.Bebop.The.Movie.2001.1080p.BluRay.[CartoonNOW]
  24. Writing library : x264 core 157 r2935 545de2f
  25. Encoding settings : cabac=1 / ref=3 / deblock=1:0:0 / analyse=0x3:0x113 / me=hex / subme=7 / psy=1 / psy_rd=1.00:0.00 / mixed_ref=1 / me_range=16 / chroma_me=1 / trellis=1 / 8x8dct=1 / cqm=0 / deadzone=21,11 / fast_pskip=1 / chroma_qp_offset=-2 / threads=24 / lookahead_threads=4 / sliced_threads=0 / nr=0 / decimate=1 / interlaced=0 / bluray_compat=0 / constrained_intra=0 / bframes=3 / b_pyramid=2 / b_adapt=1 / b_bias=0 / direct=1 / weightb=1 / open_gop=0 / weightp=2 / keyint=240 / keyint_min=24 / scenecut=40 / intra_refresh=0 / rc_lookahead=40 / rc=2pass / mbtree=1 / bitrate=6500 / ratetol=1.0 / qcomp=0.60 / qpmin=0 / qpmax=69 / qpstep=4 / cplxblur=20.0 / qblur=0.5 / vbv_maxrate=62500 / vbv_bufsize=78125 / nal_hrd=none / filler=0 / ip_ratio=1.40 / aq=1:1.00
  26. Language : Japanese
  27. Default : Yes
  28. Forced : No
  29. Color range : Limited
  30. Color primaries : BT.709
  31. Transfer characteristics : BT.709
  32. Matrix coefficients : BT.709
  33.  
  34. Audio #1
  35. ID : 2
  36. Format : AC-3
  37. Format/Info : Audio Coding 3
  38. Commercial name : Dolby Digital
  39. Codec ID : A_AC3
  40. Duration : 1 h 55 min
  41. Bit rate mode : Constant
  42. Bit rate : 384 kb/s
  43. Channel(s) : 2 channels
  44. Channel layout : L R
  45. Sampling rate : 48.0 kHz
  46. Frame rate : 31.250 FPS (1536 SPF)
  47. Compression mode : Lossy
  48. Stream size : 316 MiB (4%)
  49. Title : AC3 2.0
  50. Language : Portuguese
  51. Service kind : Complete Main
  52. Default : Yes
  53. Forced : No
  54.  
  55. Audio #2
  56. ID : 3
  57. Format : DTS XLL
  58. Format/Info : Digital Theater Systems
  59. Commercial name : DTS-HD Master Audio
  60. Codec ID : A_DTS
  61. Duration : 1 h 55 min
  62. Bit rate mode : Variable
  63. Bit rate : 3 857 kb/s
  64. Channel(s) : 6 channels
  65. Channel layout : C L R Ls Rs LFE
  66. Sampling rate : 48.0 kHz
  67. Frame rate : 93.750 FPS (512 SPF)
  68. Bit depth : 24 bits
  69. Compression mode : Lossless
  70. Stream size : 3.10 GiB (36%)
  71. Title : DTS 5.1
  72. Language : Japanese
  73. Default : No
  74. Forced : No
  75.  
  76. Text
  77. ID : 4
  78. Format : ASS
  79. Codec ID : S_TEXT/ASS
  80. Codec ID/Info : Advanced Sub Station Alpha
  81. Duration : 1 h 53 min
  82. Bit rate : 68 b/s
  83. Count of elements : 1063
  84. Compression mode : Lossless
  85. Stream size : 57.3 KiB (0%)
  86. Title : Completa
  87. Language : Portuguese
  88. Default : No
  89. Forced : No
  90.  
  91. Menu
  92. 00:00:00.000 : en:Intro
  93. 00:00:28.153 : en:Convenience Store Robbery
  94. 00:05:04.221 : en:Opening Titles
  95. 00:06:50.327 : en:Shogi
  96. 00:08:53.992 : en:Chemical Tanker Explosion
  97. 00:12:08.228 : en:CBC News
  98. 00:17:50.194 : en:Lee Samson, Computer Hacker
  99. 00:19:56.070 : en:The Bean Seller
  100. 00:27:43.787 : en:Western Movies
  101. 00:29:46.785 : en:Purgatory
  102. 00:32:50.093 : en:Masof Team 7
  103. 00:35:45.644 : en:'Ive Found You, Hacker Boy"
  104. 00:37:33.084 : en:Lymph Corpuscles
  105. 00:39:23.528 : en:Colonel Electra Ovilo
  106. 00:40:40.939 : en:Taking Out The Trash
  107. 00:45:13.502 : en:Micro-Robots
  108. 00:47:09.160 : en:"I've found Lee!"
  109. 00:49:35.973 : en:Game's Over
  110. 00:55:25.989 : en:Monorail Battle
  111. 01:00:47.477 : en:Swimming Bird
  112. 01:06:43.791 : en:Hacking Into Cherious
  113. 01:10:32.311 : en:Rasheed Explains All
  114. 01:18:09.852 : en:In Protective Custody
  115. 01:22:05.045 : en:Vincent's Next Trick
  116. 01:26:06.078 : en:Breaking Out of Cherious
  117. 01:30:26.504 : en:The Army Takes Over
  118. 01:33:05.872 : en:Air Show
  119. 01:41:24.870 : en:The Bridge to Heaven
  120. 01:44:00.735 : en:A Very Nasty Halloween Party
  121. 01:47:35.449 : en:Vincent's Second Death
  122. 01:50:27.287 : en:End Credits
  123.  
Advertisement
Add Comment
Please, Sign In to add comment
Advertisement