Guest User

Untitled

a guest
Nov 19th, 2020
170
Never
Not a member of Pastebin yet? Sign Up, it unlocks many cool features!
  1. Общее
  2. Уникальный идентификатор : 321834243221595253440231381982706504369 (0xF21F054705C341AF3720A9E4E9A592B1)
  3. Полное имя : /Volumes/Users/admin/Desktop/Serpico.1973.2160p.BluRay.REMUX.HEVC.DTS-HD.MA.5.1-FGT_RusEng/Serpico.1973.2160p.BluRay.REMUX.HEVC.DTS-HD.MA.5.1-FGT_RusEng.mkv
  4. Формат : Matroska
  5. Версия формата : Version 4
  6. Размер файла : 77,0 Гбайт
  7. Продолжительность : 2 ч. 10 м.
  8. Режим общего битрейта : Переменный
  9. Общий поток : 84,7 Мбит/сек
  10. Название фильма : Serpico.1973.2160p.BluRay.REMUX.HEVC.DTS-HD.MA.5.1-FGT
  11. Дата кодирования : UTC 2020-11-19 10:37:56
  12. Программа кодирования : mkvmerge v51.0.0 ('I Wish') 64-bit
  13. Библиотека кодирования : libebml v1.4.0 + libmatroska v1.6.2
  14. Обложка : Yes
  15. Attachments : small_cover.jpg / small_cover_land.jpg / cover.jpg / cover_land.jpg
  16.  
  17. Видео
  18. Идентификатор : 1
  19. ID in the original source medium : 4113 (0x1011)
  20. Формат : HEVC
  21. Формат/Информация : High Efficiency Video Coding
  22. Профиль формата : Main 10@L5.1@High
  23. HDR format : SMPTE ST 2086, HDR10 compatible
  24. Идентификатор кодека : V_MPEGH/ISO/HEVC
  25. Продолжительность : 2 ч. 10 м.
  26. Битрейт : 66,7 Мбит/сек
  27. Ширина : 3 840 пикселей
  28. Высота : 2 160 пикселей
  29. Соотношение сторон : 16:9
  30. Режим частоты кадров : Постоянный
  31. Частота кадров : 24,000 кадра/сек
  32. Цветовое пространство : YUV
  33. Субдискретизация насыщенности : 4:2:0 (Type 2)
  34. Битовая глубина : 10 бит
  35. Бит/(Пиксели*Кадры) : 0.335
  36. Размер потока : 60,6 Гбайт (79%)
  37. Заголовок : Serpico.1973.2160p.BluRay.REMUX.HEVC.DTS-HD.MA.5.1-FGT_RusEng
  38. Язык : English
  39. Default : Да
  40. Forced : Нет
  41. Цветовой диапазон : Limited
  42. Основные цвета : BT.2020
  43. Характеристики трансфера : PQ
  44. Коэффициенты матрицы : BT.2020 non-constant
  45. Mastering display color primaries : BT.2020
  46. Mastering display luminance : min: 0.0001 cd/m2, max: 1000 cd/m2
  47. Носитель оригинала : Blu-ray
  48.  
  49. Аудио #1
  50. Идентификатор : 2
  51. Формат : DTS XLL
  52. Формат/Информация : Digital Theater Systems
  53. Коммерческое название : DTS-HD Master Audio
  54. Идентификатор кодека : A_DTS
  55. Продолжительность : 2 ч. 9 м.
  56. Вид битрейта : Переменный
  57. Битрейт : 3 485 Кбит/сек
  58. Каналы : 6 каналов
  59. Channel layout : C L R Ls Rs LFE
  60. Частота : 48,0 КГц
  61. Частота кадров : 93,750 кадра/сек (512 SPF)
  62. Битовая глубина : 24 бит
  63. Метод сжатия : Без потерь
  64. Задержка видео : 14 с. 0 мс.
  65. Размер потока : 3,16 Гбайт (4%)
  66. Заголовок : Многоголосый закадровый (R5)
  67. Язык : Russian
  68. Default : Да
  69. Forced : Нет
  70.  
  71. Аудио #2
  72. Идентификатор : 3
  73. Формат : AC-3
  74. Формат/Информация : Audio Coding 3
  75. Коммерческое название : Dolby Digital
  76. Идентификатор кодека : A_AC3
  77. Продолжительность : 2 ч. 9 м.
  78. Вид битрейта : Постоянный
  79. Битрейт : 448 Кбит/сек
  80. Каналы : 6 каналов
  81. Channel layout : L R C LFE Ls Rs
  82. Частота : 48,0 КГц
  83. Частота кадров : 31,250 кадров/сек (1536 SPF)
  84. Метод сжатия : С потерями
  85. Задержка видео : 14 с. 0 мс.
  86. Размер потока : 417 Мбайт (1%)
  87. Заголовок : Многоголосый закадровый
  88. Язык : Russian
  89. Service kind : Complete Main
  90. Default : Нет
  91. Forced : Нет
  92.  
  93. Аудио #3
  94. Идентификатор : 4
  95. Формат : AC-3
  96. Формат/Информация : Audio Coding 3
  97. Коммерческое название : Dolby Digital
  98. Идентификатор кодека : A_AC3
  99. Продолжительность : 2 ч. 9 м.
  100. Вид битрейта : Постоянный
  101. Битрейт : 192 Кбит/сек
  102. Каналы : 2 канала
  103. Channel layout : L R
  104. Частота : 48,0 КГц
  105. Частота кадров : 31,250 кадров/сек (1536 SPF)
  106. Метод сжатия : С потерями
  107. Задержка видео : 14 с. 0 мс.
  108. Размер потока : 179 Мбайт (0%)
  109. Заголовок : Двухголосый закадровый (НТВ+: Александр Белый и Ольга Кузнецова)
  110. Язык : Russian
  111. Service kind : Complete Main
  112. Default : Нет
  113. Forced : Нет
  114.  
  115. Аудио #4
  116. Идентификатор : 5
  117. Формат : DTS XLL
  118. Формат/Информация : Digital Theater Systems
  119. Коммерческое название : DTS-HD Master Audio
  120. Идентификатор кодека : A_DTS
  121. Продолжительность : 2 ч. 9 м.
  122. Вид битрейта : Переменный
  123. Битрейт : 3 486 Кбит/сек
  124. Каналы : 6 каналов
  125. Channel layout : C L R Ls Rs LFE
  126. Частота : 48,0 КГц
  127. Частота кадров : 93,750 кадра/сек (512 SPF)
  128. Битовая глубина : 24 бит
  129. Метод сжатия : Без потерь
  130. Задержка видео : 14 с. 0 мс.
  131. Размер потока : 3,16 Гбайт (4%)
  132. Заголовок : Авторский (одноголосый закадровый) Юрий Сербин
  133. Язык : Russian
  134. Default : Нет
  135. Forced : Нет
  136.  
  137. Аудио #5
  138. Идентификатор : 6
  139. Формат : DTS XLL
  140. Формат/Информация : Digital Theater Systems
  141. Коммерческое название : DTS-HD Master Audio
  142. Идентификатор кодека : A_DTS
  143. Продолжительность : 2 ч. 10 м.
  144. Вид битрейта : Переменный
  145. Битрейт : 3 440 Кбит/сек
  146. Каналы : 6 каналов
  147. Channel layout : C L R Ls Rs LFE
  148. Частота : 48,0 КГц
  149. Частота кадров : 93,750 кадра/сек (512 SPF)
  150. Битовая глубина : 24 бит
  151. Метод сжатия : Без потерь
  152. Размер потока : 3,13 Гбайт (4%)
  153. Заголовок : DTS-HD MA
  154. Язык : English
  155. Default : Нет
  156. Forced : Нет
  157.  
  158. Аудио #6
  159. Идентификатор : 7
  160. ID in the original source medium : 4353 (0x1101)
  161. Формат : PCM
  162. Настройки формата : Little / Signed
  163. Идентификатор кодека : A_PCM/INT/LIT
  164. Продолжительность : 2 ч. 10 м.
  165. Вид битрейта : Постоянный
  166. Битрейт : 2 304 Кбит/сек
  167. Каналы : 2 канала
  168. Частота : 48,0 КГц
  169. Частота кадров : 30,000 кадров/сек (1600 SPF)
  170. Битовая глубина : 24 бит
  171. Размер потока : 2,10 Гбайт (3%)
  172. Заголовок : PCM
  173. Язык : English
  174. Default : Нет
  175. Forced : Нет
  176. Носитель оригинала : Blu-ray
  177.  
  178. Аудио #7
  179. Идентификатор : 8
  180. ID in the original source medium : 4352 (0x1100)
  181. Формат : PCM
  182. Настройки формата : Little / Signed
  183. Идентификатор кодека : A_PCM/INT/LIT
  184. Продолжительность : 2 ч. 10 м.
  185. Вид битрейта : Постоянный
  186. Битрейт : 2 304 Кбит/сек
  187. Каналы : 2 канала
  188. Частота : 48,0 КГц
  189. Частота кадров : 30,000 кадров/сек (1600 SPF)
  190. Битовая глубина : 24 бит
  191. Размер потока : 2,10 Гбайт (3%)
  192. Заголовок : PCM
  193. Язык : German
  194. Default : Нет
  195. Forced : Нет
  196. Носитель оригинала : Blu-ray
  197.  
  198. Аудио #8
  199. Идентификатор : 9
  200. ID in the original source medium : 4354 (0x1102)
  201. Формат : PCM
  202. Настройки формата : Little / Signed
  203. Идентификатор кодека : A_PCM/INT/LIT
  204. Продолжительность : 2 ч. 10 м.
  205. Вид битрейта : Постоянный
  206. Битрейт : 2 304 Кбит/сек
  207. Каналы : 2 канала
  208. Частота : 48,0 КГц
  209. Частота кадров : 30,000 кадров/сек (1600 SPF)
  210. Битовая глубина : 24 бит
  211. Размер потока : 2,10 Гбайт (3%)
  212. Заголовок : PCM
  213. Язык : French
  214. Default : Нет
  215. Forced : Нет
  216. Носитель оригинала : Blu-ray
  217.  
  218. Текст #1
  219. Идентификатор : 10
  220. Формат : PGS
  221. Режим смешивания : zlib
  222. Идентификатор кодека : S_HDMV/PGS
  223. Идентификатор кодека/Информация : Picture based subtitle format used on BDs/HD-DVDs
  224. Продолжительность : 2 ч. 8 м.
  225. Битрейт : 25,0 Кбит/сек
  226. Count of elements : 2940
  227. Размер потока : 23,1 Мбайт (0%)
  228. Язык : Russian
  229. Default : Нет
  230. Forced : Нет
  231.  
  232. Текст #2
  233. Идентификатор : 11
  234. Формат : UTF-8
  235. Идентификатор кодека : S_TEXT/UTF8
  236. Идентификатор кодека/Информация : UTF-8 Plain Text
  237. Продолжительность : 2 ч. 6 м.
  238. Битрейт : 61 бит/сек
  239. Count of elements : 1519
  240. Размер потока : 56,9 Кбайт (0%)
  241. Заголовок : English-SRT
  242. Язык : English
  243. Default : Нет
  244. Forced : Нет
  245.  
  246. Текст #3
  247. Идентификатор : 12
  248. ID in the original source medium : 4768 (0x12A0)
  249. Формат : PGS
  250. Режим смешивания : zlib
  251. Идентификатор кодека : S_HDMV/PGS
  252. Идентификатор кодека/Информация : Picture based subtitle format used on BDs/HD-DVDs
  253. Продолжительность : 2 ч. 7 м.
  254. Битрейт : 30,2 Кбит/сек
  255. Count of elements : 1910
  256. Размер потока : 27,5 Мбайт (0%)
  257. Заголовок : German-PGS
  258. Язык : German
  259. Default : Нет
  260. Forced : Нет
  261. Носитель оригинала : Blu-ray
  262.  
  263. Текст #4
  264. Идентификатор : 13
  265. ID in the original source medium : 4769 (0x12A1)
  266. Формат : PGS
  267. Режим смешивания : zlib
  268. Идентификатор кодека : S_HDMV/PGS
  269. Идентификатор кодека/Информация : Picture based subtitle format used on BDs/HD-DVDs
  270. Продолжительность : 2 ч. 8 м.
  271. Битрейт : 25,4 Кбит/сек
  272. Count of elements : 2640
  273. Размер потока : 23,4 Мбайт (0%)
  274. Заголовок : French-PGS
  275. Язык : French
  276. Default : Нет
  277. Forced : Нет
  278. Носитель оригинала : Blu-ray
  279.  
  280. Текст #5
  281. Идентификатор : 14
  282. ID in the original source medium : 4770 (0x12A2)
  283. Формат : PGS
  284. Режим смешивания : zlib
  285. Идентификатор кодека : S_HDMV/PGS
  286. Идентификатор кодека/Информация : Picture based subtitle format used on BDs/HD-DVDs
  287. Продолжительность : 2 ч. 0 м.
  288. Битрейт : 295 бит/сек
  289. Count of elements : 18
  290. Размер потока : 261 Кбайт (0%)
  291. Заголовок : German-FORCED-PGS
  292. Язык : German
  293. Default : Нет
  294. Forced : Нет
  295. Носитель оригинала : Blu-ray
  296.  
  297. Текст #6
  298. Идентификатор : 15
  299. ID in the original source medium : 4771 (0x12A3)
  300. Формат : PGS
  301. Режим смешивания : zlib
  302. Идентификатор кодека : S_HDMV/PGS
  303. Идентификатор кодека/Информация : Picture based subtitle format used on BDs/HD-DVDs
  304. Продолжительность : 2 ч. 0 м.
  305. Битрейт : 349 бит/сек
  306. Count of elements : 36
  307. Размер потока : 308 Кбайт (0%)
  308. Заголовок : French-FORCED-PGS
  309. Язык : French
  310. Default : Нет
  311. Forced : Нет
  312. Носитель оригинала : Blu-ray
  313.  
  314. Меню
  315. 00:00:00.000 : en:Chapter 01
  316. 00:06:36.000 : en:Chapter 02
  317. 00:20:57.000 : en:Chapter 03
  318. 00:30:30.000 : en:Chapter 04
  319. 00:39:22.000 : en:Chapter 05
  320. 00:51:30.000 : en:Chapter 06
  321. 00:58:44.000 : en:Chapter 07
  322. 01:10:44.000 : en:Chapter 08
  323. 01:24:51.000 : en:Chapter 09
  324. 01:36:02.000 : en:Chapter 10
  325. 01:50:17.000 : en:Chapter 11
  326. 02:02:26.000 : en:Chapter 12
  327.  
RAW Paste Data