SHARE
TWEET

Untitled

a guest Dec 8th, 2019 66 Never
Not a member of Pastebin yet? Sign Up, it unlocks many cool features!
  1. General
  2. Unique ID                                : 265196499146826941381592709033859309360 (0xC782FCE60DF6CA60A764D7B5D64D5F30)
  3. Complete name                            : Boruto.Naruto.Next.Generations.E135.VOSTFR.720p.WEB.x264-MGD.mkv
  4. Format                                   : Matroska
  5. Format version                           : Version 4 / Version 2
  6. File size                                : 705 MiB
  7. Duration                                 : 23mn 54s
  8. Overall bit rate                         : 4 122 Kbps
  9. Encoded date                             : UTC 2019-12-08 15:59:58
  10. Writing application                      : mkvmerge v38.0.0 ('The Silent Type') 64-bit
  11. Writing library                          : libebml v1.3.9 + libmatroska v1.5.2
  12. Attachments                              : OpenSans-Semibold.ttf
  13.  
  14. Video
  15. ID                                       : 2
  16. Format                                   : AVC
  17. Format/Info                              : Advanced Video Codec
  18. Format profile                           : High@L4
  19. Format settings, CABAC                   : Yes
  20. Format settings, ReFrames                : 6 frames
  21. Codec ID                                 : V_MPEG4/ISO/AVC
  22. Duration                                 : 23mn 54s
  23. Bit rate                                 : 4 000 Kbps
  24. Width                                    : 1 280 pixels
  25. Height                                   : 720 pixels
  26. Display aspect ratio                     : 16:9
  27. Frame rate mode                          : Constant
  28. Frame rate                               : 23.976 (24000/1001) fps
  29. Color space                              : YUV
  30. Chroma subsampling                       : 4:2:0
  31. Bit depth                                : 8 bits
  32. Scan type                                : Progressive
  33. Bits/(Pixel*Frame)                       : 0.181
  34. Stream size                              : 682 MiB (97%)
  35. Writing library                          : x264 core 142
  36. Encoding settings                        : cabac=1 / ref=6 / deblock=1:1:1 / analyse=0x3:0x113 / me=umh / subme=8 / psy=1 / psy_rd=0.40:0.00 / mixed_ref=1 / me_range=16 / chroma_me=1 / trellis=1 / 8x8dct=1 / cqm=0 / deadzone=21,11 / fast_pskip=1 / chroma_qp_offset=-2 / threads=10 / lookahead_threads=1 / sliced_threads=0 / nr=0 / decimate=1 / interlaced=0 / bluray_compat=0 / constrained_intra=0 / bframes=0 / weightp=2 / keyint=96 / keyint_min=48 / scenecut=40 / intra_refresh=0 / rc_lookahead=48 / rc=2pass / mbtree=1 / bitrate=4000 / ratetol=1.0 / qcomp=0.60 / qpmin=0 / qpmax=69 / qpstep=4 / cplxblur=20.0 / qblur=0.5 / vbv_maxrate=6000 / vbv_bufsize=9000 / nal_hrd=none / filler=0 / ip_ratio=1.40 / aq=1:0.60
  37. Default                                  : Yes
  38. Forced                                   : No
  39.  
  40. Audio
  41. ID                                       : 3
  42. Format                                   : AAC
  43. Format/Info                              : Advanced Audio Codec
  44. Format profile                           : LC
  45. Codec ID                                 : A_AAC
  46. Duration                                 : 23mn 54s
  47. Bit rate                                 : 128 Kbps
  48. Channel(s)                               : 2 channels
  49. Channel positions                        : Front: L R
  50. Sampling rate                            : 44.1 KHz
  51. Frame rate                               : 43.066 fps (1024 spf)
  52. Compression mode                         : Lossy
  53. Stream size                              : 21.9 MiB (3%)
  54. Language                                 : Japanese
  55. Default                                  : Yes
  56. Forced                                   : No
  57.  
  58. Text
  59. ID                                       : 1
  60. Format                                   : UTF-8
  61. Codec ID                                 : S_TEXT/UTF8
  62. Codec ID/Info                            : UTF-8 Plain Text
  63. Duration                                 : 23mn 10s
  64. Bit rate                                 : 47 bps
  65. Count of elements                        : 241
  66. Stream size                              : 8.04 KiB (0%)
  67. Title                                    : French
  68. Language                                 : French
  69. Default                                  : No
  70. Forced                                   : No
RAW Paste Data
We use cookies for various purposes including analytics. By continuing to use Pastebin, you agree to our use of cookies as described in the Cookies Policy. OK, I Understand
 
Top