Advertisement
Guest User

M2 HD_2014_0402_1732_36.mpg info

a guest
Apr 3rd, 2014
116
Never
Not a member of Pastebin yet? Sign Up, it unlocks many cool features!
text 4.94 KB | None
  1. General
  2. ID : 1 (0x1)
  3. Complete name : ...\M2 HD_2014_0402_1732_36.mpg
  4. Format : MPEG-TS
  5. File size : 23.2 MiB
  6. Duration : 30s 810ms
  7. Start time : UTC 2014-04-02 15:32:59
  8. End time : UTC 2014-04-02 15:33:19
  9. Overall bit rate mode : Variable
  10. Overall bit rate : 6 291 Kbps
  11. Network name : DTT Hungary
  12. Country : hun
  13. Timezone : +02:00:00
  14.  
  15. Video
  16. ID : 1011 (0x3F3)
  17. Menu ID : 101 (0x65)
  18. Format : AVC
  19. Format/Info : Advanced Video Codec
  20. Format profile : High@L4.0
  21. Format settings, CABAC : Yes
  22. Format settings, ReFrames : 4 frames
  23. Codec ID : 27
  24. Duration : 29s 680ms
  25. Width : 1 440 pixels
  26. Height : 1 080 pixels
  27. Display aspect ratio : 16:9
  28. Frame rate : 25.000 fps
  29. Color space : YUV
  30. Chroma subsampling : 4:2:0
  31. Bit depth : 8 bits
  32. Scan type : MBAFF
  33. Color primaries : BT.709-5, BT.1361, IEC 61966-2-4, SMPTE RP177
  34. Transfer characteristics : BT.709-5, BT.1361
  35. Matrix coefficients : BT.709-5, BT.1361, IEC 61966-2-4 709, SMPTE RP177
  36.  
  37. Audio #1
  38. ID : 1012 (0x3F4)
  39. Menu ID : 101 (0x65)
  40. Format : MPEG Audio
  41. Format version : Version 1
  42. Format profile : Layer 2
  43. Mode : Joint stereo
  44. Codec ID : 3
  45. Duration : 30s 768ms
  46. Bit rate mode : Constant
  47. Bit rate : 128 Kbps
  48. Channel(s) : 2 channels
  49. Sampling rate : 48.0 KHz
  50. Compression mode : Lossy
  51. Delay relative to video : -659ms
  52. Stream size : 481 KiB (2%)
  53. Language : Hungarian
  54.  
  55. Audio #2
  56. ID : 1014 (0x3F6)
  57. Menu ID : 101 (0x65)
  58. Format : AC-3
  59. Format/Info : Audio Coding 3
  60. Mode extension : CM (complete main)
  61. Codec ID : 6
  62. Duration : 30s 848ms
  63. Bit rate mode : Constant
  64. Bit rate : 384 Kbps
  65. Channel(s) : 2 channels
  66. Channel positions : Front: L R
  67. Sampling rate : 48.0 KHz
  68. Bit depth : 16 bits
  69. Compression mode : Lossy
  70. Delay relative to video : -715ms
  71. Stream size : 1.41 MiB (6%)
  72. Language : Hungarian
  73.  
  74. Audio #3
  75. ID : 1016 (0x3F8)
  76. Menu ID : 101 (0x65)
  77. Format : AAC
  78. Format/Info : Advanced Audio Codec
  79. Format profile : HE-AAC / LC
  80. Muxing mode : LATM
  81. Codec ID : 17
  82. Duration : 30s 464ms
  83. Bit rate mode : Variable
  84. Minimum bit rate : 174 Kbps
  85. Maximum bit rate : 227 Kbps
  86. Channel(s) : 2 channels
  87. Channel positions : Front: L R
  88. Sampling rate : 48.0 KHz / 24.0 KHz
  89. Compression mode : Lossy
  90. Delay relative to video : -351ms
  91. Language : Multiple languages
  92.  
  93. Text #1
  94. ID : 1003 (0x3EB)-100
  95. Menu ID : 101 (0x65)
  96. Format : Teletext
  97. Language : Hungarian
  98.  
  99. Text #2
  100. ID : 1003 (0x3EB)-222
  101. Menu ID : 101 (0x65)
  102. Format : Teletext Subtitle
  103. Language : Hungarian
Advertisement
RAW Paste Data Copied
Advertisement