SHARE
TWEET

Untitled

a guest Apr 4th, 2017 99 Never
Not a member of Pastebin yet? Sign Up, it unlocks many cool features!
  1. ffmpeg version 3.2.4 Copyright (c) 2000-2017 the FFmpeg developers
  2.   built with gcc 6.3.0 (GCC)
  3.   configuration: --enable-gpl --enable-version3 --enable-d3d11va --enable-dxva2 --enable-libmfx --enable-nvenc --enable-avisynth --enable-bzlib --enable-fontconfig --enable-frei0r --enable-gnutls --enable-iconv --enable-libass --enable-libbluray --enable-libbs2b --enable-libcaca --enable-libfreetype --enable-libgme --enable-libgsm --enable-libilbc --enable-libmodplug --enable-libmp3lame --enable-libopencore-amrnb --enable-libopencore-amrwb --enable-libopenh264 --enable-libopenjpeg --enable-libopus --enable-librtmp --enable-libsnappy --enable-libsoxr --enable-libspeex --enable-libtheora --enable-libtwolame --enable-libvidstab --enable-libvo-amrwbenc --enable-libvorbis --enable-libvpx --enable-libwavpack --enable-libwebp --enable-libx264 --enable-libx265 --enable-libxavs --enable-libxvid --enable-libzimg --enable-lzma --enable-zlib
  4.   libavutil      55. 34.101 / 55. 34.101
  5.   libavcodec     57. 64.101 / 57. 64.101
  6.   libavformat    57. 56.101 / 57. 56.101
  7.   libavdevice    57.  1.100 / 57.  1.100
  8.   libavfilter     6. 65.100 /  6. 65.100
  9.   libswscale      4.  2.100 /  4.  2.100
  10.   libswresample   2.  3.100 /  2.  3.100
  11.   libpostproc    54.  1.100 / 54.  1.100
  12. Input #0, dshow, from 'video=Logitech HD Webcam C615':
  13.   Duration: N/A, start: 435209.526000, bitrate: N/A
  14.     Stream #0:0: Video: mjpeg (MJPG / 0x47504A4D), yuvj422p(pc, bt470bg/unknown/unknown), 1920x1080, 30 fps, 30 tbr, 10000k tbn, 10000k tbc
  15. [dshow @ 0381d240] real-time buffer [Logitech HD Webcam C615] [video input] too full or near too full (85% of size: 3041280 [rtbufsize parameter])! frame dropped!
  16.     Last message repeated 1 times
  17. Guessed Channel Layout for Input Stream #1.0 : stereo
  18. Input #1, dshow, from 'audio=Microphone (HD Webcam C615)':
  19.   Duration: N/A, start: 435209.578000, bitrate: 1411 kb/s
  20.     Stream #1:0: Audio: pcm_s16le, 44100 Hz, stereo, s16, 1411 kb/s
  21. [dshow @ 0381d240] real-time buffer [Logitech HD Webcam C615] [video input] too full or near too full (97% of size: 3041280 [rtbufsize parameter])! frame dropped!
  22.     Last message repeated 2 times
  23. [dshow @ 0381d240] real-time buffer [Logitech HD Webcam C615] [video input] too full or near too full (103% of size: 3041280 [rtbufsize parameter])! frame dropped!
  24.     Last message repeated 10 times
  25. Guessed Channel Layout for Input Stream #2.0 : stereo
  26. Input #2, dshow, from 'audio=Microphone Array (Realtek High Definition Audio)':
  27.   Duration: N/A, start: 435210.125000, bitrate: 1411 kb/s
  28.     Stream #2:0: Audio: pcm_s16le, 44100 Hz, stereo, s16, 1411 kb/s
  29. Codec AVOption vbr (Variable bit rate mode) specified for output file #0 ([select=\\'v,a:0\\']C:/Users/vshevchu/Desktop/123/111/111_jjj1.avi| [select=\\'v,a:1\\']C:/Users/vshevchu/Desktop/123/111/111_jjj2.avi) has not been used for any stream. The most likely reason is either wrong type (e.g. a video option with no video streams) or that it is a private option of some encoder which was not actually used for any stream.
  30. [swscaler @ 0e97cb40] deprecated pixel format used, make sure you did set range correctly
  31. [libx264 @ 0e950360] using cpu capabilities: MMX2 SSE2Fast SSSE3 SSE4.2 AVX FMA3 AVX2 LZCNT BMI2
  32. [libx264 @ 0e950360] profile Constrained Baseline, level 4.0
  33. Output #0, tee, to '[select=\\'v,a:0\\']C:/Users/vshevchu/Desktop/123/111/111_jjj1.avi| [select=\\'v,a:1\\']C:/Users/vshevchu/Desktop/123/111/111_jjj2.avi':
  34.   Metadata:
  35.     encoder         : Lavf57.56.101
  36.     Stream #0:0: Video: h264 (libx264), yuv420p, 1920x1080, q=-1--1, 30 fps, 30 tbn, 30 tbc
  37.     Metadata:
  38.       encoder         : Lavc57.64.101 libx264
  39.     Side data:
  40.       cpb: bitrate max/min/avg: 0/0/0 buffer size: 0 vbv_delay: -1
  41.     Stream #0:1: Audio: aac (LC), 44100 Hz, stereo, fltp, 128 kb/s
  42.     Metadata:
  43.       encoder         : Lavc57.64.101 aac
  44.     Stream #0:2: Audio: aac (LC), 44100 Hz, stereo, fltp, 128 kb/s
  45.     Metadata:
  46.       encoder         : Lavc57.64.101 aac
  47. Stream mapping:
  48.   Stream #1:0 (pcm_s16le) -> volume (graph 0)
  49.   Stream #2:0 (pcm_s16le) -> volume (graph 0)
  50.   Stream #0:0 -> #0:0 (mjpeg (native) -> h264 (libx264))
  51.   volume (graph 0) -> Stream #0:1 (aac)
  52.   volume (graph 0) -> Stream #0:2 (aac)
  53. Press [q] to stop, [?] for help
  54. [dshow @ 0381d240] real-time buffer [Logitech HD Webcam C615] [video input] too full or near too full (103% of size: 3041280 [rtbufsize parameter])! frame dropped!
  55. [dshow @ 0381d240] real-time buffer [Logitech HD Webcam C615] [video input] too full or near too full (91% of size: 3041280 [rtbufsize parameter])! frame dropped!
  56. [dshow @ 0381d240] real-time buffer [Logitech HD Webcam C615] [video input] too full or near too full (79% of size: 3041280 [rtbufsize parameter])! frame dropped!
  57. frame=   38 fps=0.0 q=13.0 size=N/A time=00:00:00.95 bitrate=N/A dup=19 drop=0 speed=1.88x    \r[dshow @ 0381d240] real-time buffer [Logitech HD Webcam C615] [video input] too full or near too full (79% of size: 3041280 [rtbufsize parameter])! frame dropped!
  58.     Last message repeated 1 times
  59. [dshow @ 0381d240] real-time buffer [Logitech HD Webcam C615] [video input] too full or near too full (67% of size: 3041280 [rtbufsize parameter])! frame dropped!
  60. [dshow @ 0381d240] real-time buffer [Logitech HD Webcam C615] [video input] too full or near too full (85% of size: 3041280 [rtbufsize parameter])! frame dropped!
  61.     Last message repeated 1 times
  62. [dshow @ 0381d240] real-time buffer [Logitech HD Webcam C615] [video input] too full or near too full (97% of size: 3041280 [rtbufsize parameter])! frame dropped!
  63.     Last message repeated 2 times
  64. frame=   42 fps= 40 q=21.0 size=N/A time=00:00:01.44 bitrate=N/A dup=19 drop=0 speed=1.38x    \r[dshow @ 0381d240] real-time buffer [Logitech HD Webcam C615] [video input] too full or near too full (97% of size: 3041280 [rtbufsize parameter])! frame dropped!
  65. [dshow @ 0381d240] real-time buffer [Logitech HD Webcam C615] [video input] too full or near too full (85% of size: 3041280 [rtbufsize parameter])! frame dropped!
  66. [dshow @ 0381d240] real-time buffer [Logitech HD Webcam C615] [video input] too full or near too full (67% of size: 3041280 [rtbufsize parameter])! frame dropped!
  67. [dshow @ 0381d240] real-time buffer [Logitech HD Webcam C615] [video input] too full or near too full (85% of size: 3041280 [rtbufsize parameter])! frame dropped!
  68.     Last message repeated 1 times
  69. frame=   58 fps= 37 q=22.0 size=N/A time=00:00:01.95 bitrate=N/A dup=22 drop=0 speed=1.24x    \r[dshow @ 0381d240] real-time buffer [Logitech HD Webcam C615] [video input] too full or near too full (73% of size: 3041280 [rtbufsize parameter])! frame dropped!
  70. [dshow @ 0381d240] real-time buffer [Logitech HD Webcam C615] [video input] too full or near too full (67% of size: 3041280 [rtbufsize parameter])! frame dropped!
  71. [dshow @ 0381d240] real-time buffer [Logitech HD Webcam C615] [video input] too full or near too full (85% of size: 3041280 [rtbufsize parameter])! frame dropped!
  72.     Last message repeated 2 times
  73. frame=   78 fps= 37 q=22.0 size=N/A time=00:00:02.44 bitrate=N/A dup=30 drop=0 speed=1.16x    \r[dshow @ 0381d240] real-time buffer [Logitech HD Webcam C615] [video input] too full or near too full (67% of size: 3041280 [rtbufsize parameter])! frame dropped!
  74.     Last message repeated 1 times
  75. [dshow @ 0381d240] real-time buffer [Logitech HD Webcam C615] [video input] too full or near too full (86% of size: 3041280 [rtbufsize parameter])! frame dropped!
  76.     Last message repeated 1 times
  77. [dshow @ 0381d240] real-time buffer [Logitech HD Webcam C615] [video input] too full or near too full (80% of size: 3041280 [rtbufsize parameter])! frame dropped!
  78. frame=   95 fps= 36 q=21.0 size=N/A time=00:00:02.95 bitrate=N/A dup=36 drop=0 speed=1.13x    \r[dshow @ 0381d240] real-time buffer [Logitech HD Webcam C615] [video input] too full or near too full (79% of size: 3041280 [rtbufsize parameter])! frame dropped!
  79.     Last message repeated 1 times
  80. [dshow @ 0381d240] real-time buffer [Logitech HD Webcam C615] [video input] too full or near too full (91% of size: 3041280 [rtbufsize parameter])! frame dropped!
  81.     Last message repeated 1 times
  82. [dshow @ 0381d240] real-time buffer [Logitech HD Webcam C615] [video input] too full or near too full (73% of size: 3041280 [rtbufsize parameter])! frame dropped!
  83. frame=  111 fps= 36 q=21.0 size=N/A time=00:00:03.44 bitrate=N/A dup=41 drop=0 speed= 1.1x    \r[dshow @ 0381d240] real-time buffer [Logitech HD Webcam C615] [video input] too full or near too full (79% of size: 3041280 [rtbufsize parameter])! frame dropped!
  84.     Last message repeated 1 times
  85. [dshow @ 0381d240] real-time buffer [Logitech HD Webcam C615] [video input] too full or near too full (91% of size: 3041280 [rtbufsize parameter])! frame dropped!
  86. [dshow @ 0381d240] real-time buffer [Logitech HD Webcam C615] [video input] too full or near too full (79% of size: 3041280 [rtbufsize parameter])! frame dropped!
  87. frame=  127 fps= 35 q=21.0 size=N/A time=00:00:03.95 bitrate=N/A dup=46 drop=0 speed=1.09x    \r[dshow @ 0381d240] real-time buffer [Logitech HD Webcam C615] [video input] too full or near too full (66% of size: 3041280 [rtbufsize parameter])! frame dropped!
  88. [dshow @ 0381d240] real-time buffer [Logitech HD Webcam C615] [video input] too full or near too full (84% of size: 3041280 [rtbufsize parameter])! frame dropped!
  89.     Last message repeated 1 times
  90. [dshow @ 0381d240] real-time buffer [Logitech HD Webcam C615] [video input] too full or near too full (78% of size: 3041280 [rtbufsize parameter])! frame dropped!
  91. frame=  143 fps= 35 q=21.0 size=N/A time=00:00:04.43 bitrate=N/A dup=51 drop=0 speed=1.08x    \r[dshow @ 0381d240] real-time buffer [Logitech HD Webcam C615] [video input] too full or near too full (72% of size: 3041280 [rtbufsize parameter])! frame dropped!
  92. [dshow @ 0381d240] real-time buffer [Logitech HD Webcam C615] [video input] too full or near too full (90% of size: 3041280 [rtbufsize parameter])! frame dropped!
  93.     Last message repeated 2 times
  94. [dshow @ 0381d240] real-time buffer [Logitech HD Webcam C615] [video input] too full or near too full (72% of size: 3041280 [rtbufsize parameter])! frame dropped!
  95. frame=  158 fps= 34 q=22.0 size=N/A time=00:00:04.94 bitrate=N/A dup=55 drop=0 speed=1.07x    \r[dshow @ 0381d240] real-time buffer [Logitech HD Webcam C615] [video input] too full or near too full (76% of size: 3041280 [rtbufsize parameter])! frame dropped!
  96.     Last message repeated 1 times
  97. [dshow @ 0381d240] real-time buffer [Logitech HD Webcam C615] [video input] too full or near too full (89% of size: 3041280 [rtbufsize parameter])! frame dropped!
  98.     Last message repeated 1 times
  99. [dshow @ 0381d240] real-time buffer [Logitech HD Webcam C615] [video input] too full or near too full (72% of size: 3041280 [rtbufsize parameter])! frame dropped!
  100. frame=  174 fps= 34 q=22.0 size=N/A time=00:00:05.43 bitrate=N/A dup=60 drop=0 speed=1.06x    \r[dshow @ 0381d240] real-time buffer [Logitech HD Webcam C615] [video input] too full or near too full (86% of size: 3041280 [rtbufsize parameter])! frame dropped!
  101.     Last message repeated 1 times
  102. [dshow @ 0381d240] real-time buffer [Logitech HD Webcam C615] [video input] too full or near too full (99% of size: 3041280 [rtbufsize parameter])! frame dropped!
  103. [dshow @ 0381d240] real-time buffer [Logitech HD Webcam C615] [video input] too full or near too full (86% of size: 3041280 [rtbufsize parameter])! frame dropped!
  104. [dshow @ 0381d240] real-time buffer [Logitech HD Webcam C615] [video input] too full or near too full (65% of size: 3041280 [rtbufsize parameter])! frame dropped!
  105. frame=  190 fps= 34 q=23.0 size=N/A time=00:00:05.94 bitrate=N/A dup=65 drop=0 speed=1.05x    \r[dshow @ 0381d240] real-time buffer [Logitech HD Webcam C615] [video input] too full or near too full (63% of size: 3041280 [rtbufsize parameter])! frame dropped!
  106. [dshow @ 0381d240] real-time buffer [Logitech HD Webcam C615] [video input] too full or near too full (81% of size: 3041280 [rtbufsize parameter])! frame dropped!
  107.     Last message repeated 1 times
  108. [dshow @ 0381d240] real-time buffer [Logitech HD Webcam C615] [video input] too full or near too full (73% of size: 3041280 [rtbufsize parameter])! frame dropped!
  109. frame=  205 fps= 33 q=22.0 size=N/A time=00:00:06.43 bitrate=N/A dup=70 drop=0 speed=1.04x    \r[dshow @ 0381d240] real-time buffer [Logitech HD Webcam C615] [video input] too full or near too full (73% of size: 3041280 [rtbufsize parameter])! frame dropped!
  110. [dshow @ 0381d240] real-time buffer [Logitech HD Webcam C615] [video input] too full or near too full (93% of size: 3041280 [rtbufsize parameter])! frame dropped!
RAW Paste Data
We use cookies for various purposes including analytics. By continuing to use Pastebin, you agree to our use of cookies as described in the Cookies Policy. OK, I Understand
Not a member of Pastebin yet?
Sign Up, it unlocks many cool features!
 
Top