iMN0

The.Nightingale.2018.1080p.BluRay.X264-AMIABLE.mkv

Jul 7th, 2021
76
Never
Not a member of Pastebin yet? Sign Up, it unlocks many cool features!
  1. General
  2. Complete name : The.Nightingale.2018.1080p.BluRay.X264-AMIABLE.mkv
  3. Format : Matroska
  4. Format version : Version 4
  5. File size : 9.82 GiB
  6. Duration : 2 h 16 min
  7. Overall bit rate : 10.3 Mb/s
  8. Encoded date : UTC 2010-02-22 21:41:29
  9. Writing application : no_variable_data
  10. Writing library : no_variable_data
  11.  
  12. Video
  13. ID : 1
  14. Format : AVC
  15. Format/Info : Advanced Video Codec
  16. Format profile : High@L4.1
  17. Format settings : CABAC / 5 Ref Frames
  18. Format settings, CABAC : Yes
  19. Format settings, Reference frames : 5 frames
  20. Codec ID : V_MPEG4/ISO/AVC
  21. Duration : 2 h 16 min
  22. Bit rate : 8 826 kb/s
  23. Width : 1 488 pixels
  24. Height : 1 080 pixels
  25. Display aspect ratio : 1.378
  26. Frame rate mode : Constant
  27. Frame rate : 23.976 (24000/1001) FPS
  28. Color space : YUV
  29. Chroma subsampling : 4:2:0
  30. Bit depth : 8 bits
  31. Scan type : Progressive
  32. Bits/(Pixel*Frame) : 0.229
  33. Stream size : 8.19 GiB (83%)
  34. Writing library : x264 core 158 r2988 7817004
  35. Encoding settings : cabac=1 / ref=5 / deblock=1:-3:-3 / analyse=0x3:0x113 / me=umh / subme=8 / psy=1 / psy_rd=1.00:0.00 / mixed_ref=1 / me_range=32 / chroma_me=1 / trellis=2 / 8x8dct=1 / cqm=0 / deadzone=21,11 / fast_pskip=1 / chroma_qp_offset=-2 / threads=34 / lookahead_threads=5 / sliced_threads=0 / nr=0 / decimate=1 / interlaced=0 / bluray_compat=0 / constrained_intra=0 / bframes=3 / b_pyramid=2 / b_adapt=2 / b_bias=0 / direct=3 / weightb=1 / open_gop=0 / weightp=2 / keyint=240 / keyint_min=24 / scenecut=40 / intra_refresh=0 / rc_lookahead=50 / rc=2pass / mbtree=1 / bitrate=8826 / ratetol=1.0 / qcomp=0.60 / qpmin=0 / qpmax=69 / qpstep=4 / cplxblur=20.0 / qblur=0.5 / ip_ratio=1.40 / aq=3:0.70
  36. Default : Yes
  37. Forced : No
  38. Statistics Tags Issue : no_variable_data 1970-01-01 00:00:00 / no_variable_data 2010-02-22 21:41:29
  39. FromStats_BitRate : 8809674
  40. FromStats_Duration : 02:16:16.293000000
  41. FromStats_FrameCount : 196035
  42. FromStats_StreamSize : 9003809704
  43.  
  44. Audio
  45. ID : 2
  46. Format : DTS
  47. Format/Info : Digital Theater Systems
  48. Codec ID : A_DTS
  49. Duration : 2 h 16 min
  50. Bit rate mode : Constant
  51. Bit rate : 1 509 kb/s
  52. Channel(s) : 6 channels
  53. Channel layout : C L R Ls Rs LFE
  54. Sampling rate : 48.0 kHz
  55. Frame rate : 93.750 FPS (512 SPF)
  56. Bit depth : 24 bits
  57. Compression mode : Lossy
  58. Stream size : 1.44 GiB (15%)
  59. Language : English
  60. Default : Yes
  61. Forced : No
  62. Statistics Tags Issue : no_variable_data 1970-01-01 00:00:00 / no_variable_data 2010-02-22 21:41:29
  63. FromStats_BitRate : 1509000
  64. FromStats_Duration : 02:16:16.288000000
  65. FromStats_FrameCount : 766527
  66. FromStats_StreamSize : 1542252324
  67.  
  68. Text #1
  69. ID : 3
  70. Format : UTF-8
  71. Codec ID : S_TEXT/UTF8
  72. Codec ID/Info : UTF-8 Plain Text
  73. Language : English
  74. Default : No
  75. Forced : No
  76. Statistics Tags Issue : no_variable_data 1970-01-01 00:00:00 / no_variable_data 2010-02-22 21:41:29
  77. FromStats_BitRate : 34
  78. FromStats_Duration : 02:10:32.825000000
  79. FromStats_FrameCount : 1243
  80. FromStats_StreamSize : 33997
  81.  
  82. Text #2
  83. ID : 4
  84. Format : UTF-8
  85. Codec ID : S_TEXT/UTF8
  86. Codec ID/Info : UTF-8 Plain Text
  87. Title : SDH
  88. Language : English
  89. Default : No
  90. Forced : No
  91. Statistics Tags Issue : no_variable_data 1970-01-01 00:00:00 / no_variable_data 2010-02-22 21:41:29
  92. FromStats_BitRate : 38
  93. FromStats_Duration : 02:10:50.134000000
  94. FromStats_FrameCount : 1430
  95. FromStats_StreamSize : 38060
  96.  
  97. Menu
  98. 00:00:00.000 : en:Chapter 01
  99. 00:12:59.654 : en:Chapter 02
  100. 00:30:09.891 : en:Chapter 03
  101. 00:43:30.316 : en:Chapter 04
  102. 00:51:30.170 : en:Chapter 05
  103. 01:00:02.140 : en:Chapter 06
  104. 01:15:03.874 : en:Chapter 07
  105. 01:23:14.323 : en:Chapter 08
  106. 01:31:28.274 : en:Chapter 09
  107. 01:45:19.855 : en:Chapter 10
  108. 01:58:33.315 : en:Chapter 11
  109. 02:11:44.271 : en:Chapter 12
RAW Paste Data