SHARE
TWEET

Gemini Man WEB-RIP 1080p

dirtyharrys Nov 22nd, 2019 98 Never
Not a member of Pastebin yet? Sign Up, it unlocks many cool features!
  1. General
  2. Unique ID                   : 330924842868836416106951819065021808781 (0xF8F5CE71B0AA89EF9839C0058479C08D)
  3. Complete name               : E:\GM180WEB64.mkv
  4. Format                      : Matroska
  5. Format version              : Version 4
  6. File size                   : 2.14 GiB
  7. Duration                    : 1 h 56 min
  8. Overall bit rate            : 2 614 kb/s
  9. Movie name                  : Gemini Man WEB-RIP / Gemini Man WEB-RIP
  10. Encoded date                : UTC 2019-11-22 04:21:56
  11. Writing application         : mkvmerge v30.1.0 ('Forever And More') 32-bit
  12. Writing library             : libebml v1.3.6 + libmatroska v1.4.9
  13. Copyright                   : HARSHLEARNER
  14.  
  15. Video
  16. ID                          : 1
  17. Format                      : AVC
  18. Format/Info                 : Advanced Video Codec
  19. Format profile              : High@L4.1
  20. Format settings             : CABAC / 4 Ref Frames
  21. Format settings, CABAC      : Yes
  22. Format settings, ReFrames   : 4 frames
  23. Codec ID                    : V_MPEG4/ISO/AVC
  24. Duration                    : 1 h 56 min
  25. Bit rate                    : 2 100 kb/s
  26. Width                       : 1 920 pixels
  27. Height                      : 1 024 pixels
  28. Display aspect ratio        : 1.85:1
  29. Frame rate mode             : Constant
  30. Frame rate                  : 23.976 (24000/1001) FPS
  31. Color space                 : YUV
  32. Chroma subsampling          : 4:2:0
  33. Bit depth                   : 8 bits
  34. Scan type                   : Progressive
  35. Bits/(Pixel*Frame)          : 0.045
  36. Stream size                 : 1.72 GiB (80%)
  37. Title                       : Gemini Man
  38. Writing library             : x264 core 158
  39. Default                     : Yes
  40. Forced                      : No
  41.  
  42. Audio #1
  43. ID                          : 2
  44. Format                      : AC-3
  45. Format/Info                 : Audio Coding 3
  46. Commercial name             : Dolby Digital
  47. Codec ID                    : A_AC3
  48. Duration                    : 1 h 56 min
  49. Bit rate mode               : Constant
  50. Bit rate                    : 320 kb/s
  51. Channel(s)                  : 6 channels
  52. Channel layout              : L R C LFE Ls Rs
  53. Sampling rate               : 48.0 kHz
  54. Frame rate                  : 31.250 FPS (1536 SPF)
  55. Bit depth                   : 16 bits
  56. Compression mode            : Lossy
  57. Stream size                 : 268 MiB (12%)
  58. Language                    : English
  59. Service kind                : Complete Main
  60. Default                     : No
  61. Forced                      : No
  62.  
  63. Audio #2
  64. ID                          : 3
  65. Format                      : AC-3
  66. Format/Info                 : Audio Coding 3
  67. Commercial name             : Dolby Digital
  68. Codec ID                    : A_AC3
  69. Duration                    : 1 h 56 min
  70. Bit rate mode               : Constant
  71. Bit rate                    : 192 kb/s
  72. Channel(s)                  : 2 channels
  73. Channel layout              : L R
  74. Sampling rate               : 48.0 kHz
  75. Frame rate                  : 31.250 FPS (1536 SPF)
  76. Bit depth                   : 16 bits
  77. Compression mode            : Lossy
  78. Stream size                 : 161 MiB (7%)
  79. Language                    : Spanish
  80. Service kind                : Complete Main
  81. Default                     : Yes
  82. Forced                      : Yes
  83.  
  84. Text #1
  85. ID                          : 4
  86. Format                      : UTF-8
  87. Codec ID                    : S_TEXT/UTF8
  88. Codec ID/Info               : UTF-8 Plain Text
  89. Duration                    : 1 h 45 min
  90. Bit rate                    : 49 b/s
  91. Count of elements           : 1382
  92. Stream size                 : 38.3 KiB (0%)
  93. Language                    : English
  94. Default                     : No
  95. Forced                      : No
  96.  
  97. Text #2
  98. ID                          : 5
  99. Format                      : UTF-8
  100. Codec ID                    : S_TEXT/UTF8
  101. Codec ID/Info               : UTF-8 Plain Text
  102. Duration                    : 1 h 45 min
  103. Bit rate                    : 55 b/s
  104. Count of elements           : 1401
  105. Stream size                 : 42.7 KiB (0%)
  106. Language                    : Spanish
  107. Default                     : Yes
  108. Forced                      : Yes
RAW Paste Data
We use cookies for various purposes including analytics. By continuing to use Pastebin, you agree to our use of cookies as described in the Cookies Policy. OK, I Understand
 
Top