GrabHD

Untitled

Mar 1st, 2020
110
Never
Not a member of Pastebin yet? Sign Up, it unlocks many cool features!
  1. Общее
  2. Уникальный идентификатор : 229592847718597523017995870397540820296 (0xACB9F95AEFDF8069AF76BB7A7B436548)
  3. Полное имя : D:\Раздача\Vecher S Beverli.2018.BDRip-AVC.ExKinoRay (1).mkv
  4. Формат : Matroska
  5. Версия формата : Version 4 / Version 2
  6. Размер файла : 2,71 Гбайт
  7. Продолжительность : 1 ч. 47 м.
  8. Общий поток : 3600 Кбит/сек
  9. Название фильма : An Evening with Beverly Luff Linn.2018.BDRip-AVC.ExKinoRay & grab777
  10. Дата кодирования : UTC 2020-03-01 21:39:56
  11. Программа кодирования : mkvmerge v7.3.0 ('Nouages') 64bit built on Oct 22 2014 18:53:34
  12. Библиотека кодирования : libebml v1.3.0 + libmatroska v1.4.1
  13.  
  14. Видео
  15. Идентификатор : 1
  16. Формат : AVC
  17. Формат/Информация : Advanced Video Codec
  18. Профиль формата : High@L4.1
  19. Настройки формата : CABAC / 12 Ref Frames
  20. Параметр CABAC формата : Да
  21. Параметр RefFrames формата : 12 кадров
  22. Идентификатор кодека : V_MPEG4/ISO/AVC
  23. Продолжительность : 1 ч. 47 м.
  24. Битрейт : 2766 Кбит/сек
  25. Ширина : 1024 пикселя
  26. Высота : 552 пикселя
  27. Соотношение сторон : 1,85:1
  28. Режим частоты кадров : Переменный
  29. Частота кадров : 24,000 кадра/сек
  30. Цветовое пространство : YUV
  31. Субдискретизация насыщенности : 4:2:0
  32. Битовая глубина : 8 бит
  33. Тип развёртки : Прогрессивная
  34. Бит/(Пиксели*Кадры) : 0.204
  35. Размер потока : 2,08 Гбайт (77%)
  36. Заголовок : Rip by grab777
  37. Библиотека кодирования : x264 core 148 r2665M a01e339
  38. Настройки программы : cabac=1 / ref=12 / deblock=1:-2:-2 / analyse=0x3:0x133 / me=umh / subme=10 / psy=1 / psy_rd=1.00:0.15 / mixed_ref=1 / me_range=32 / chroma_me=1 / trellis=2 / 8x8dct=1 / cqm=0 / deadzone=21,11 / fast_pskip=0 / chroma_qp_offset=-3 / threads=5 / lookahead_threads=1 / sliced_threads=0 / nr=0 / decimate=1 / interlaced=0 / bluray_compat=0 / constrained_intra=0 / bframes=10 / b_pyramid=2 / b_adapt=2 / b_bias=0 / direct=3 / weightb=1 / open_gop=0 / weightp=2 / keyint=240 / keyint_min=24 / scenecut=40 / intra_refresh=0 / rc_lookahead=40 / rc=crf / mbtree=1 / crf=15.1 / qcomp=0.90 / qpmin=3 / qpmax=69 / qpstep=4 / vbv_maxrate=40000 / vbv_bufsize=30000 / crf_max=31.0 / nal_hrd=none / filler=0 / ip_ratio=1.40 / aq=1:0.00
  39. Язык : English
  40. Default : Да
  41. Forced : Нет
  42. Цветовой диапазон : Limited
  43. Основные цвета : BT.709
  44. Характеристики трансфера : BT.709
  45. Коэффициенты матрицы : BT.709
  46.  
  47. Аудио #1
  48. Идентификатор : 2
  49. Формат : AC-3
  50. Формат/Информация : Audio Coding 3
  51. Параметр Endianness формата : Big
  52. Идентификатор кодека : A_AC3
  53. Продолжительность : 1 ч. 47 м.
  54. Вид битрейта : Постоянный
  55. Битрейт : 384 Кбит/сек
  56. Каналы : 6 каналов
  57. Расположение каналов : Front: L C R, Side: L R, LFE
  58. Частота : 48,0 КГц
  59. Частота кадров : 31,250 кадров/сек (1536 SPF)
  60. Битовая глубина : 16 бит
  61. Метод сжатия : С потерями
  62. Размер потока : 296 Мбайт (11%)
  63. Заголовок : MVO (iTunes)
  64. Язык : Russian
  65. ServiceKind/String : Complete Main
  66. Default : Да
  67. Forced : Да
  68.  
  69. Аудио #2
  70. Идентификатор : 3
  71. Формат : AC-3
  72. Формат/Информация : Audio Coding 3
  73. Параметр Endianness формата : Big
  74. Идентификатор кодека : A_AC3
  75. Продолжительность : 1 ч. 47 м.
  76. Вид битрейта : Постоянный
  77. Битрейт : 448 Кбит/сек
  78. Каналы : 6 каналов
  79. Расположение каналов : Front: L C R, Side: L R, LFE
  80. Частота : 48,0 КГц
  81. Частота кадров : 31,250 кадров/сек (1536 SPF)
  82. Битовая глубина : 16 бит
  83. Метод сжатия : С потерями
  84. Размер потока : 345 Мбайт (12%)
  85. Заголовок : Original
  86. Язык : English
  87. ServiceKind/String : Complete Main
  88. Default : Нет
  89. Forced : Нет
  90.  
  91. Текст
  92. Идентификатор : 4
  93. Формат : UTF-8
  94. Идентификатор кодека : S_TEXT/UTF8
  95. Идентификатор кодека/Информация : UTF-8 Plain Text
  96. Продолжительность : 1 ч. 42 м.
  97. Битрейт : 49 бит/сек
  98. ElementCount : 1130
  99. Размер потока : 37,4 Кбайт (0%)
  100. Язык : English
  101. Default : Нет
  102. Forced : Нет
  103.  
  104. Меню
  105. 00:00:00.000 : :Chapter 01
  106. 00:06:38.833 : :Chapter 02
  107. 00:23:31.500 : :Chapter 03
  108. 00:38:49.541 : :Chapter 04
  109. 00:52:40.958 : :Chapter 05
  110. 01:08:14.916 : :Chapter 06
  111. 01:23:47.875 : :Chapter 07
  112. 01:37:41.833 : :Chapter 08
RAW Paste Data