TolstiyMob

Katanagatari Vol.11 Dokuto Mekki

Nov 27th, 2011
76
Never
Not a member of Pastebin yet? Sign Up, it unlocks many cool features!
  1. Disc Title: BDROM
  2. Disc Size: 16 975 947 435 bytes
  3. Protection: AACS
  4. BD-Java: No
  5. BDInfo: 0.5.6
  6.  
  7. Notes:
  8.  
  9. BDINFO HOME:
  10. Cinema Squid
  11. http://www.cinemasquid.com/blu-ray/tools/bdinfo
  12.  
  13. INCLUDES FORUMS REPORT FOR:
  14. AVS Forum Blu-ray Audio and Video Specifications Thread
  15. http://www.avsforum.com/avs-vb/showthread.php?t=1155731
  16.  
  17.  
  18. ********************
  19. PLAYLIST: 00000.MPLS
  20. ********************
  21.  
  22. <--- BEGIN FORUMS PASTE --->
  23. [code]
  24. Total Video
  25. Title Codec Length Movie Size Disc Size Bitrate Bitrate Main Audio Track Secondary Audio Track
  26. ----- ------ ------- -------------- -------------- ------- ------- ------------------ ---------------------
  27. 00000.MPLS AVC 0:49:49 15 758 321 664 16 975 947 435 42,16 37,98 LPCM 2.0 2304Kbps (48kHz/24-bit)
  28. [/code]
  29.  
  30. [code]
  31.  
  32. DISC INFO:
  33.  
  34. Disc Title: BDROM
  35. Disc Size: 16 975 947 435 bytes
  36. Protection: AACS
  37. BD-Java: No
  38. BDInfo: 0.5.6
  39.  
  40. PLAYLIST REPORT:
  41.  
  42. Name: 00000.MPLS
  43. Length: 0:49:49 (h:m:s)
  44. Size: 15 758 321 664 bytes
  45. Total Bitrate: 42,16 Mbps
  46.  
  47. VIDEO:
  48.  
  49. Codec Bitrate Description
  50. ----- ------- -----------
  51. MPEG-4 AVC Video 37983 kbps 1080p / 23,976 fps / 16:9 / High Profile 4.1
  52.  
  53. AUDIO:
  54.  
  55. Codec Language Bitrate Description
  56. ----- -------- ------- -----------
  57. LPCM Audio Japanese 2304 kbps 2.0 / 48 kHz / 2304 kbps / 24-bit
  58.  
  59. FILES:
  60.  
  61. Name Time In Length Size Total Bitrate
  62. ---- ------- ------ ---- -------------
  63. 00000.M2TS 0:00:00.000 0:49:49.861 15 758 321 664 42 165
  64.  
  65. CHAPTERS:
  66.  
  67. Number Time In Length Avg Video Rate Max 1-Sec Rate Max 1-Sec Time Max 5-Sec Rate Max 5-Sec Time Max 10Sec Rate Max 10Sec Time Avg Frame Size Max Frame Size Max Frame Time
  68. ------ ------- ------ -------------- -------------- -------------- -------------- -------------- -------------- -------------- -------------- -------------- --------------
  69. 1 0:00:00.000 0:04:09.999 38 244 kbps 42 975 kbps 00:01:25.877 40 236 kbps 00:00:34.492 39 891 kbps 00:00:34.367 199 355 bytes 640 110 bytes 00:02:34.571
  70. 2 0:04:09.999 0:01:30.006 37 889 kbps 44 295 kbps 00:05:27.410 40 336 kbps 00:05:23.281 39 900 kbps 00:04:43.866 197 536 bytes 640 788 bytes 00:05:30.288
  71. 3 0:05:40.006 0:09:29.944 37 638 kbps 46 523 kbps 00:14:26.866 40 928 kbps 00:11:14.215 40 063 kbps 00:11:09.126 196 225 bytes 640 915 bytes 00:07:52.513
  72. 4 0:15:09.950 0:10:06.022 38 749 kbps 45 866 kbps 00:19:08.647 40 597 kbps 00:19:04.643 39 954 kbps 00:15:39.980 202 019 bytes 640 885 bytes 00:22:38.940
  73. 5 0:25:15.972 0:17:11.905 38 061 kbps 49 555 kbps 00:29:21.259 40 477 kbps 00:29:17.255 40 190 kbps 00:41:16.891 198 430 bytes 640 905 bytes 00:31:01.025
  74. 6 0:42:27.878 0:05:12.979 37 595 kbps 45 331 kbps 00:46:51.809 40 912 kbps 00:44:02.640 40 023 kbps 00:44:00.387 196 001 bytes 640 849 bytes 00:44:54.316
  75. 7 0:47:40.858 0:01:29.964 39 447 kbps 42 128 kbps 00:48:39.249 40 030 kbps 00:48:35.329 39 770 kbps 00:48:55.015 205 658 bytes 639 221 bytes 00:48:08.886
  76. 8 0:49:10.822 0:00:37.037 28 722 kbps 42 427 kbps 00:49:15.285 39 877 kbps 00:49:22.250 39 567 kbps 00:49:17.162 149 742 bytes 466 133 bytes 00:49:27.130
  77. 9 0:49:47.859 0:00:02.002 1 996 kbps 1 999 kbps 00:49:48.819 0 kbps 00:00:00.000 0 kbps 00:00:00.000 10 626 bytes 208 308 bytes 00:49:49.820
  78.  
  79. STREAM DIAGNOSTICS:
  80.  
  81. File PID Type Codec Language Seconds Bitrate Bytes Packets
  82. ---- --- ---- ----- -------- -------------- -------------- ------------- -----
  83. 00000.M2TS 4113 (0x1011) 0x1B AVC 2989,695 37 985 14 195 401 992 77 190 652
  84. 00000.M2TS 4352 (0x1100) 0x80 LPCM jpn (Japanese) 2989,695 2 311 863 471 568 4 783 776
  85.  
  86. [/code]
  87. <---- END FORUMS PASTE ---->
  88.  
  89. QUICK SUMMARY:
  90.  
  91. Disc Title: BDROM
  92. Disc Size: 16 975 947 435 bytes
  93. Protection: AACS
  94. BD-Java: No
  95. Playlist: 00000.MPLS
  96. Size: 15 758 321 664 bytes
  97. Length: 0:49:49
  98. Total Bitrate: 42,16 Mbps
  99. Video: MPEG-4 AVC Video / 37983 kbps / 1080p / 23,976 fps / 16:9 / High Profile 4.1
  100. Audio: Japanese / LPCM Audio / 2.0 / 48 kHz / 2304 kbps / 24-bit
  101.  
  102.  
  103. ********************
  104. PLAYLIST: 00002.MPLS
  105. ********************
  106.  
  107. <--- BEGIN FORUMS PASTE --->
  108. [code]
  109. Total Video
  110. Title Codec Length Movie Size Disc Size Bitrate Bitrate Main Audio Track Secondary Audio Track
  111. ----- ------ ------- -------------- -------------- ------- ------- ------------------ ---------------------
  112. 00002.MPLS AVC 0:00:38 66 680 832 16 975 947 435 14,02 11,60 LPCM 2.0 1536Kbps (48kHz/16-bit)
  113. [/code]
  114.  
  115. [code]
  116.  
  117. DISC INFO:
  118.  
  119. Disc Title: BDROM
  120. Disc Size: 16 975 947 435 bytes
  121. Protection: AACS
  122. BD-Java: No
  123. BDInfo: 0.5.6
  124.  
  125. PLAYLIST REPORT:
  126.  
  127. Name: 00002.MPLS
  128. Length: 0:00:38 (h:m:s)
  129. Size: 66 680 832 bytes
  130. Total Bitrate: 14,02 Mbps
  131.  
  132. VIDEO:
  133.  
  134. Codec Bitrate Description
  135. ----- ------- -----------
  136. MPEG-4 AVC Video 11601 kbps 1080i / 29,970 fps / 16:9 / High Profile 4.1
  137.  
  138. AUDIO:
  139.  
  140. Codec Language Bitrate Description
  141. ----- -------- ------- -----------
  142. LPCM Audio Japanese 1536 kbps 2.0 / 48 kHz / 1536 kbps / 16-bit
  143.  
  144. FILES:
  145.  
  146. Name Time In Length Size Total Bitrate
  147. ---- ------- ------ ---- -------------
  148. 00003.M2TS 0:00:00.000 0:00:22.021 23 218 176 8 435
  149. 00002.M2TS 0:00:22.021 0:00:16.015 43 462 656 21 710
  150.  
  151. CHAPTERS:
  152.  
  153. Number Time In Length Avg Video Rate Max 1-Sec Rate Max 1-Sec Time Max 5-Sec Rate Max 5-Sec Time Max 10Sec Rate Max 10Sec Time Avg Frame Size Max Frame Size Max Frame Time
  154. ------ ------- ------ -------------- -------------- -------------- -------------- -------------- -------------- -------------- -------------- -------------- --------------
  155. 1 0:00:00.000 0:00:38.037 11 601 kbps 46 121 kbps 00:00:31.564 32 526 kbps 00:00:28.495 27 952 kbps 00:00:23.523 48 385 bytes 489 494 bytes 00:00:03.002
  156.  
  157. STREAM DIAGNOSTICS:
  158.  
  159. File PID Type Codec Language Seconds Bitrate Bytes Packets
  160. ---- --- ---- ----- -------- -------------- -------------- ------------- -----
  161. 00003.M2TS 4113 (0x1011) 0x1B AVC 21,889 6 281 17 184 086 93 744
  162. 00003.M2TS 4352 (0x1100) 0x80 LPCM jpn (Japanese) 21,889 1 552 4 246 420 26 430
  163. 00002.M2TS 4113 (0x1011) 0x1B AVC 15,883 19 128 37 974 761 206 633
  164. 00002.M2TS 4352 (0x1100) 0x80 LPCM jpn (Japanese) 15,883 1 555 3 087 692 19 218
  165.  
  166. [/code]
  167. <---- END FORUMS PASTE ---->
  168.  
  169. QUICK SUMMARY:
  170.  
  171. Disc Title: BDROM
  172. Disc Size: 16 975 947 435 bytes
  173. Protection: AACS
  174. BD-Java: No
  175. Playlist: 00002.MPLS
  176. Size: 66 680 832 bytes
  177. Length: 0:00:38
  178. Total Bitrate: 14,02 Mbps
  179. Video: MPEG-4 AVC Video / 11601 kbps / 1080i / 29,970 fps / 16:9 / High Profile 4.1
  180. Audio: Japanese / LPCM Audio / 2.0 / 48 kHz / 1536 kbps / 16-bit
  181.  
RAW Paste Data