SHARE
TWEET

CUE Sheet for Glamorous Dementia

djdee Nov 15th, 2019 289 Never
Not a member of Pastebin yet? Sign Up, it unlocks many cool features!
  1. PERFORMER "DJ Dementia"
  2. TITLE "Glamorous Dementia"
  3. FILE "Glamerous Dementia Full_pn.mp3" MP3
  4.   TRACK 01 AUDIO
  5.     PERFORMER "Love and Rockets"
  6.     TITLE "So Alive"
  7.     INDEX 01 00:00:00
  8.   TRACK 02 AUDIO
  9.     PERFORMER "Nitzer Ebb"
  10.     TITLE "Join In The Chant"
  11.     INDEX 01 04:03:19
  12.   TRACK 03 AUDIO
  13.     PERFORMER "Sisters of Mercy"
  14.     TITLE "Dominion Mother Russia"
  15.     INDEX 01 09:52:70
  16.   TRACK 04 AUDIO
  17.     PERFORMER "Information Society"
  18.     TITLE "What's On Your Mind (Pure Energy)"
  19.     INDEX 01 16:20:21
  20.   TRACK 05 AUDIO
  21.     PERFORMER "Nine Inch Nails"
  22.     TITLE "Down In It Singe"
  23.     INDEX 01 20:17:07
  24.   TRACK 06 AUDIO
  25.     PERFORMER "Iggy Pop"
  26.     TITLE "Lust For Life"
  27.     INDEX 01 27:15:23
  28.   TRACK 07 AUDIO
  29.     PERFORMER "Talking Heads"
  30.     TITLE "Psycho Killer"
  31.     INDEX 01 32:10:67
  32.   TRACK 08 AUDIO
  33.     PERFORMER "Arnaud Rebotini"
  34.     TITLE "Pagan Dance Move"
  35.     INDEX 01 36:16:07
  36.   TRACK 09 AUDIO
  37.     PERFORMER "3TEETH"
  38.     TITLE "Pearls 2 Swine (Mr. Skeleton Remix)"
  39.     INDEX 01 43:11:58
  40.   TRACK 10 AUDIO
  41.     PERFORMER "Front Line Assembly"
  42.     TITLE "Circuitry"
  43.     INDEX 01 47:09:61
  44.   TRACK 11 AUDIO
  45.     PERFORMER "The Cramps"
  46.     TITLE "Bikini Girls with Machine Guns"
  47.     INDEX 01 52:39:14
  48.   TRACK 12 AUDIO
  49.     PERFORMER "DAF"
  50.     TITLE "Als War's Das Letzte Mal"
  51.     INDEX 01 55:42:41
  52.   TRACK 13 AUDIO
  53.     PERFORMER "Fad Gadget"
  54.     TITLE "Collapsing New People"
  55.     INDEX 01 58:55:07
  56.   TRACK 14 AUDIO
  57.     PERFORMER "Louisahhh"
  58.     TITLE "Feral Rhythm"
  59.     INDEX 01 62:57:69
  60.   TRACK 15 AUDIO
  61.     PERFORMER "Radical G, The Horrorist"
  62.     TITLE "Here Comes The Storm Kobosil 44 Terror Mix"
  63.     INDEX 01 66:40:33
  64.   TRACK 16 AUDIO
  65.     PERFORMER "Tones on Tail"
  66.     TITLE "Go!"
  67.     INDEX 01 71:40:73
  68.   TRACK 17 AUDIO
  69.     PERFORMER "Ministry"
  70.     TITLE "We Believe"
  71.     INDEX 01 75:49:25
  72.   TRACK 18 AUDIO
  73.     PERFORMER "VoX LoW"
  74.     TITLE "Something Is Wrong"
  75.     INDEX 01 77:55:03
  76.   TRACK 19 AUDIO
  77.     PERFORMER "Lydia Lunch"
  78.     TITLE "Spooky"
  79.     INDEX 01 83:14:52
  80.   TRACK 20 AUDIO
  81.     PERFORMER "Peter Murphy"
  82.     TITLE "All Night Long"
  83.     INDEX 01 85:38:64
  84.   TRACK 21 AUDIO
  85.     PERFORMER "Killing Joke"
  86.     TITLE "Love Like Blood"
  87.     INDEX 01 91:04:30
  88.   TRACK 22 AUDIO
  89.     PERFORMER "The Cramps"
  90.     TITLE "Strychnine"
  91.     INDEX 01 96:03:19
  92.   TRACK 23 AUDIO
  93.     PERFORMER "The Normal"
  94.     TITLE "Warm Leatherette"
  95.     INDEX 01 98:19:32
RAW Paste Data
We use cookies for various purposes including analytics. By continuing to use Pastebin, you agree to our use of cookies as described in the Cookies Policy. OK, I Understand
Top