Guest User

ffmpeg log

a guest
Feb 4th, 2019
114
Never
Not a member of Pastebin yet? Sign Up, it unlocks many cool features!
  1. ffmpeg version 3.4.4-0ubuntu0.18.04.1 Copyright (c) 2000-2018 the FFmpeg developers
  2.   built with gcc 7 (Ubuntu 7.3.0-16ubuntu3)
  3.   configuration: --prefix=/usr --extra-version=0ubuntu0.18.04.1 --toolchain=hardened --libdir=/usr/lib/x86_64-linux-gnu --incdir=/usr/include/x86_64-linux-gnu --enable-gpl --disable-stripping --enable-avresample --enable-avisynth --enable-gnutls --enable-ladspa --enable-libass --enable-libbluray --enable-libbs2b --enable-libcaca --enable-libcdio --enable-libflite --enable-libfontconfig --enable-libfreetype --enable-libfribidi --enable-libgme --enable-libgsm --enable-libmp3lame --enable-libmysofa --enable-libopenjpeg --enable-libopenmpt --enable-libopus --enable-libpulse --enable-librubberband --enable-librsvg --enable-libshine --enable-libsnappy --enable-libsoxr --enable-libspeex --enable-libssh --enable-libtheora --enable-libtwolame --enable-libvorbis --enable-libvpx --enable-libwavpack --enable-libwebp --enable-libx265 --enable-libxml2 --enable-libxvid --enable-libzmq --enable-libzvbi --enable-omx --enable-openal --enable-opengl --enable-sdl2 --enable-libdc1394 --enable-libdrm --enable-libiec61883 --enable-chromaprint --enable-frei0r --enable-libopencv --enable-libx264 --enable-shared
  4.   libavutil      55. 78.100 / 55. 78.100
  5.   libavcodec     57.107.100 / 57.107.100
  6.   libavformat    57. 83.100 / 57. 83.100
  7.   libavdevice    57. 10.100 / 57. 10.100
  8.   libavfilter     6.107.100 /  6.107.100
  9.   libavresample   3.  7.  0 /  3.  7.  0
  10.   libswscale      4.  8.100 /  4.  8.100
  11.   libswresample   2.  9.100 /  2.  9.100
  12.   libpostproc    54.  7.100 / 54.  7.100
  13. Input #0, mov,mp4,m4a,3gp,3g2,mj2, from '1.mp4':
  14.   Metadata:
  15.     major_brand     : isom
  16.     minor_version   : 512
  17.     compatible_brands: isomiso2avc1mp41
  18.     encoder         : Lavf56.40.101
  19.   Duration: 00:58:10.66, start: 0.000000, bitrate: 1063 kb/s
  20.     Stream #0:0(und): Video: h264 (Main) (avc1 / 0x31637661), yuv420p(tv, bt709), 1280x720 [SAR 1:1 DAR 16:9], 931 kb/s, 25 fps, 25 tbr, 90k tbn, 50 tbc (default)
  21.     Metadata:
  22.       handler_name    : VideoHandler
  23.     Stream #0:1(und): Audio: aac (LC) (mp4a / 0x6134706D), 44100 Hz, stereo, fltp, 125 kb/s (default)
  24.     Metadata:
  25.       handler_name    : SoundHandler
  26. Stream mapping:
  27.   Stream #0:0 -> #0:0 (h264 (native) -> rawvideo (native))
  28. Press [q] to stop, [?] for help
  29. [v4l2 @ 0x55e5b9bc7c40] ioctl(VIDIOC_G_FMT): Invalid argument
  30. Could not write header for output file #0 (incorrect codec parameters ?): Invalid argument
  31. Error initializing output stream 0:0 --
  32. Conversion failed!
RAW Paste Data