GrabHD

Untitled

Feb 22nd, 2020
123
Never
Not a member of Pastebin yet? Sign Up, it unlocks many cool features!
  1. Общее
  2. Уникальный идентификатор : 176859822030991879711594699650844310902 (0x850DF674DF9F527A930FFA48B9BBBD76)
  3. Полное имя : D:\Раздача\Mera Cheloveka.2018.AMZN.WEB-DL 1080p.grab777.mkv
  4. Формат : Matroska
  5. Версия формата : Version 4 / Version 2
  6. Размер файла : 6,60 Гбайт
  7. Продолжительность : 1 ч. 40 м.
  8. Общий поток : 9444 Кбит/сек
  9. Название фильма : Measure of a Man.2018.AMZN.WEB-DL 1080p.grab777
  10. Дата кодирования : UTC 2020-02-22 23:07:36
  11. Программа кодирования : mkvmerge v7.3.0 ('Nouages') 64bit built on Oct 22 2014 18:53:34
  12. Библиотека кодирования : libebml v1.3.0 + libmatroska v1.4.1
  13.  
  14. Видео
  15. Идентификатор : 1
  16. Формат : AVC
  17. Формат/Информация : Advanced Video Codec
  18. Профиль формата : High@L4
  19. Настройки формата : CABAC / 4 Ref Frames
  20. Параметр CABAC формата : Да
  21. Параметр RefFrames формата : 4 кадра
  22. Идентификатор кодека : V_MPEG4/ISO/AVC
  23. Продолжительность : 1 ч. 40 м.
  24. Вид битрейта : Постоянный
  25. Битрейт : 8610 Кбит/сек
  26. Номинальный битрейт : 10000 Кбит/сек
  27. Ширина : 1920 пикселей
  28. Высота : 800 пикселей
  29. Соотношение сторон : 2,40:1
  30. Режим частоты кадров : Постоянный
  31. Частота кадров : 23,976 (24000/1001) кадра/сек
  32. Цветовое пространство : YUV
  33. Субдискретизация насыщенности : 4:2:0
  34. Битовая глубина : 8 бит
  35. Тип развёртки : Прогрессивная
  36. Бит/(Пиксели*Кадры) : 0.234
  37. Размер потока : 6,02 Гбайт (91%)
  38. Заголовок : AMZN
  39. Default : Да
  40. Forced : Нет
  41. Цветовой диапазон : Limited
  42. Основные цвета : BT.709
  43. Характеристики трансфера : BT.709
  44. Коэффициенты матрицы : BT.709
  45.  
  46. Аудио #1
  47. Идентификатор : 2
  48. Формат : AC-3
  49. Формат/Информация : Audio Coding 3
  50. Параметр Endianness формата : Big
  51. Идентификатор кодека : A_AC3
  52. Продолжительность : 1 ч. 40 м.
  53. Вид битрейта : Постоянный
  54. Битрейт : 192 Кбит/сек
  55. Каналы : 2 канала
  56. Расположение каналов : Front: L R
  57. Частота : 48,0 КГц
  58. Частота кадров : 31,250 кадров/сек (1536 SPF)
  59. Битовая глубина : 16 бит
  60. Метод сжатия : С потерями
  61. Размер потока : 137 Мбайт (2%)
  62. Заголовок : MVO (HDRezka Studio)
  63. Язык : Russian
  64. ServiceKind/String : Complete Main
  65. Default : Да
  66. Forced : Да
  67.  
  68. Аудио #2
  69. Идентификатор : 3
  70. Формат : E-AC-3
  71. Формат/Информация : Enhanced Audio Coding 3
  72. Параметр Endianness формата : Big
  73. Идентификатор кодека : A_EAC3
  74. Продолжительность : 1 ч. 40 м.
  75. Вид битрейта : Постоянный
  76. Битрейт : 640 Кбит/сек
  77. Каналы : 6 каналов
  78. Расположение каналов : Front: L C R, Side: L R, LFE
  79. Частота : 48,0 КГц
  80. Частота кадров : 187,500 кадров/сек (256 SPF)
  81. Метод сжатия : С потерями
  82. Размер потока : 458 Мбайт (7%)
  83. Заголовок : Original
  84. Язык : English
  85. ServiceKind/String : Complete Main
  86. Default : Нет
  87. Forced : Нет
  88.  
  89. Текст #1
  90. Идентификатор : 4
  91. Формат : UTF-8
  92. Идентификатор кодека : S_TEXT/UTF8
  93. Идентификатор кодека/Информация : UTF-8 Plain Text
  94. Продолжительность : 1 ч. 34 м.
  95. Битрейт : 56 бит/сек
  96. ElementCount : 1422
  97. Размер потока : 38,9 Кбайт (0%)
  98. Язык : English
  99. Default : Нет
  100. Forced : Нет
  101.  
  102. Текст #2
  103. Идентификатор : 5
  104. Формат : UTF-8
  105. Идентификатор кодека : S_TEXT/UTF8
  106. Идентификатор кодека/Информация : UTF-8 Plain Text
  107. Продолжительность : 1 ч. 35 м.
  108. Битрейт : 63 бит/сек
  109. ElementCount : 1580
  110. Размер потока : 44,2 Кбайт (0%)
  111. Заголовок : SDH
  112. Язык : English
  113. Default : Нет
  114. Forced : Нет
RAW Paste Data