SHARE
TWEET

Untitled

mft39anton May 2nd, 2018 67 Never
Not a member of Pastebin yet? Sign Up, it unlocks many cool features!
  1. General
  2. Unique ID                                : 229494951362908139539101227857840079994 (0xACA71EB13675A5F7B080A1AB785A847A)
  3. Complete name                            : F:\RU\Odna.zhizn.na.dvoih.2018.WEB-DL.(1080p).Getty\Odna.zhizn.na.dvoih.e01.2018.WEB-DL.(1080p).Getty.mkv
  4. Format                                   : Matroska
  5. Format version                           : Version 4 / Version 2
  6. File size                                : 1.88 GiB
  7. Duration                                 : 50 min 43 s
  8. Overall bit rate                         : 5 300 kb/s
  9. Movie name                               : Odna.zhizn.na.dvoih.e01.2018.WEB-DL.(1080p).Getty
  10. Encoded date                             : UTC 2018-03-27 15:22:29
  11. Writing application                      : mkvmerge v7.8.0 ('River Man') 32bit built on Mar 27 2015 16:18:02
  12. Writing library                          : libebml v1.3.1 + libmatroska v1.4.2
  13.  
  14. Video
  15. ID                                       : 1
  16. Format                                   : AVC
  17. Format/Info                              : Advanced Video Codec
  18. Format profile                           : High@L4
  19. Format settings                          : CABAC / 4 Ref Frames
  20. Format settings, CABAC                   : Yes
  21. Format settings, RefFrames               : 4 frames
  22. Codec ID                                 : V_MPEG4/ISO/AVC
  23. Duration                                 : 50 min 43 s
  24. Bit rate                                 : 5 106 kb/s
  25. Width                                    : 1 920 pixels
  26. Height                                   : 1 080 pixels
  27. Display aspect ratio                     : 16:9
  28. Frame rate mode                          : Constant
  29. Frame rate                               : 25.000 FPS
  30. Color space                              : YUV
  31. Chroma subsampling                       : 4:2:0
  32. Bit depth                                : 8 bits
  33. Scan type                                : Progressive
  34. Bits/(Pixel*Frame)                       : 0.098
  35. Stream size                              : 1.81 GiB (96%)
  36. Default                                  : Yes
  37. Forced                                   : No
  38.  
  39. Audio
  40. ID                                       : 2
  41. Format                                   : AC-3
  42. Format/Info                              : Audio Coding 3
  43. Codec ID                                 : A_AC3
  44. Duration                                 : 50 min 43 s
  45. Bit rate mode                            : Constant
  46. Bit rate                                 : 192 kb/s
  47. Channel(s)                               : 2 channels
  48. Channel positions                        : Front: L R
  49. Sampling rate                            : 48.0 kHz
  50. Frame rate                               : 31.250 FPS (1536 SPF)
  51. Bit depth                                : 16 bits
  52. Compression mode                         : Lossy
  53. Stream size                              : 69.7 MiB (4%)
  54. Service kind                             : Complete Main
  55. Default                                  : Yes
  56. Forced                                   : No
RAW Paste Data
We use cookies for various purposes including analytics. By continuing to use Pastebin, you agree to our use of cookies as described in the Cookies Policy. OK, I Understand
 
Top