Interfilm

Untitled

Jun 8th, 2014
265
Never
Not a member of Pastebin yet? Sign Up, it unlocks many cool features!
  1. Общее
  2. REC.3.Genesis.2012.Blu.Ray.720p.CINEMANIA.mkv
  3. Формат : Matroska
  4. Версия формата : Version 4 / Version 2
  5. Размер файла : 4,60 Гбайт
  6. Продолжительность : 1 ч. 20 м.
  7. Общий поток : 8203 Кбит/сек
  8. Название фильма : Release Group CINEMANIA
  9. Дата кодирования : UTC 2014-06-08 20:36:28
  10. Программа кодирования : mkvmerge v6.9.1 ('Blue Panther') 64bit built on Apr 18 2014 18:23:38
  11. Библиотека кодирования : libebml v1.3.0 + libmatroska v1.4.1
  12.  
  13. Видео
  14. Идентификатор : 1
  15. Формат : AVC
  16. Формат/Информация : Advanced Video Codec
  17. Профиль формата : High@L4.1
  18. Параметр CABAC формата : Да
  19. Параметр ReFrames формата : 9 кадров
  20. Идентификатор кодека : V_MPEG4/ISO/AVC
  21. Продолжительность : 1 ч. 20 м.
  22. Битрейт : 6146 Кбит/сек
  23. Ширина : 1280 пикселей
  24. Высота : 720 пикселей
  25. Соотношение сторон : 16:9
  26. Режим частоты кадров : Постоянный
  27. Частота кадров : 24,000 кадра/сек
  28. Цветовое пространство : YUV
  29. Субдискретизация насыщенности : 4:2:0
  30. Битовая глубина : 8 бит
  31. Тип развёртки : Прогрессивная
  32. Бит/(Пиксели*Кадры) : 0.278
  33. Размер потока : 3,45 Гбайт (75%)
  34. Заголовок : Release Group CINEMANIA
  35. Библиотека кодирования : x264 core 125 r2200 999b753
  36. Настройки программы : cabac=1 / ref=9 / deblock=1:-3:-3 / analyse=0x3:0x133 / me=umh / subme=10 / psy=1 / psy_rd=1.00:0.00 / mixed_ref=1 / me_range=32 / chroma_me=1 / trellis=2 / 8x8dct=1 / cqm=0 / deadzone=21,11 / fast_pskip=0 / chroma_qp_offset=-2 / threads=18 / lookahead_threads=3 / sliced_threads=0 / nr=0 / decimate=1 / interlaced=0 / bluray_compat=0 / constrained_intra=0 / bframes=8 / b_pyramid=2 / b_adapt=2 / b_bias=0 / direct=3 / weightb=1 / open_gop=0 / weightp=2 / keyint=240 / keyint_min=24 / scenecut=40 / intra_refresh=0 / rc_lookahead=60 / rc=crf / mbtree=1 / crf=17.0 / qcomp=0.75 / qpmin=0 / qpmax=69 / qpstep=4 / vbv_maxrate=40000 / vbv_bufsize=30000 / crf_max=0.0 / nal_hrd=none / ip_ratio=1.40 / aq=1:0.80
  37. Язык : Russian
  38. Default : Да
  39. Forced : Нет
  40. Коэффициенты матрицы : BT.709
  41.  
  42. Аудио #1
  43. Идентификатор : 2
  44. Формат : AC-3
  45. Формат/Информация : Audio Coding 3
  46. Расширение режима : CM (complete main)
  47. Параметр Endianness формата : Big
  48. Идентификатор кодека : A_AC3
  49. Продолжительность : 1 ч. 20 м.
  50. Вид битрейта : Постоянный
  51. Битрейт : 384 Кбит/сек
  52. Каналы : 6 каналов
  53. Расположение каналов : Front: L C R, Side: L R, LFE
  54. Частота : 48,0 КГц
  55. Битовая глубина : 16 бит
  56. Метод сжатия : С потерями
  57. Размер потока : 220 Мбайт (5%)
  58. Заголовок : Дубляж (Лицензия)
  59. Язык : Russian
  60. Default : Да
  61. Forced : Да
  62.  
  63. Аудио #2
  64. Идентификатор : 3
  65. Формат : DTS
  66. Формат/Информация : Digital Theater Systems
  67. Режим : 16
  68. Параметр Endianness формата : Big
  69. Идентификатор кодека : A_DTS
  70. Продолжительность : 1 ч. 20 м.
  71. Вид битрейта : Постоянный
  72. Битрейт : 1510 Кбит/сек
  73. Каналы : 6 каналов
  74. Расположение каналов : Front: L C R, Side: L R, LFE
  75. Частота : 48,0 КГц
  76. Битовая глубина : 24 бит
  77. Метод сжатия : С потерями
  78. Размер потока : 867 Мбайт (18%)
  79. Язык : Spanish
  80. Default : Нет
  81. Forced : Нет
  82.  
  83. Текст #1
  84. Идентификатор : 4
  85. Формат : UTF-8
  86. Идентификатор кодека : S_TEXT/UTF8
  87. Идентификатор кодека/Информация : UTF-8 Plain Text
  88. Язык : Russian
  89. Default : Нет
  90. Forced : Нет
  91.  
  92. Текст #2
  93. Идентификатор : 5
  94. Формат : UTF-8
  95. Идентификатор кодека : S_TEXT/UTF8
  96. Идентификатор кодека/Информация : UTF-8 Plain Text
  97. Язык : English
  98. Default : Нет
  99. Forced : Нет
RAW Paste Data