skorbuly

mediainfo

Dec 21st, 2015
77
Never
Not a member of Pastebin yet? Sign Up, it unlocks many cool features!
  1. Video
  2. ID : 0
  3. Format : MPEG-4 Visual
  4. Format profile : Advanced Simple@L5
  5. Format settings, BVOP : 2
  6. Format settings, QPel : No
  7. Format settings, GMC : No warppoints
  8. Format settings, Matrix : Default (H.263)
  9. Muxing mode : Packed bitstream
  10. Codec ID : XVID
  11. Codec ID/Hint : XviD
  12. Duration : 37mn 49s
  13. Bit rate : 1 225 Kbps
  14. Width : 640 pixels
  15. Height : 336 pixels
  16. Display aspect ratio : 1.905
  17. Frame rate : 25.000 fps
  18. Color space : YUV
  19. Chroma subsampling : 4:2:0
  20. Bit depth : 8 bits
  21. Scan type : Progressive
  22. Compression mode : Lossy
  23. Bits/(Pixel*Frame) : 0.228
  24. Stream size : 331 MiB (47%)
  25. Writing library : XviD 1.2.1 (UTC 2008-12-04)
  26.  
  27. Audio #1
  28. ID : 1
  29. Format : AC-3
  30. Format/Info : Audio Coding 3
  31. Mode extension : CM (complete main)
  32. Format settings, Endianness : Big
  33. Codec ID : 2000
  34. Duration : 37mn 49s
  35. Bit rate mode : Constant
  36. Bit rate : 448 Kbps
  37. Channel(s) : 6 channels
  38. Channel positions : Front: L C R, Side: L R, LFE
  39. Sampling rate : 48.0 KHz
  40. Frame rate : 31.250 fps (1536 spf)
  41. Compression mode : Lossy
  42. Stream size : 121 MiB (17%)
  43. Alignment : Split accross interleaves
  44. Interleave, duration : 40 ms (1.00 video frame)
  45. Interleave, preload duration : 500 ms
  46.  
  47. Audio #2
  48. ID : 2
  49. Format : AC-3
  50. Format/Info : Audio Coding 3
  51. Mode extension : CM (complete main)
  52. Format settings, Endianness : Big
  53. Codec ID : 2000
  54. Duration : 37mn 49s
  55. Bit rate mode : Constant
  56. Bit rate : 448 Kbps
  57. Channel(s) : 6 channels
  58. Channel positions : Front: L C R, Side: L R, LFE
  59. Sampling rate : 48.0 KHz
  60. Frame rate : 31.250 fps (1536 spf)
  61. Compression mode : Lossy
  62. Stream size : 121 MiB (17%)
  63. Alignment : Split accross interleaves
  64. Interleave, duration : 40 ms (1.00 video frame)
  65. Interleave, preload duration : 500 ms
  66.  
  67. Audio #3
  68. ID : 3
  69. Format : AC-3
  70. Format/Info : Audio Coding 3
  71. Mode extension : CM (complete main)
  72. Format settings, Endianness : Big
  73. Codec ID : 2000
  74. Duration : 37mn 49s
  75. Bit rate mode : Constant
  76. Bit rate : 448 Kbps
  77. Channel(s) : 6 channels
  78. Channel positions : Front: L C R, Side: L R, LFE
  79. Sampling rate : 48.0 KHz
  80. Frame rate : 31.250 fps (1536 spf)
  81. Compression mode : Lossy
  82. Delay relative to video : 300ms
  83. Stream size : 121 MiB (17%)
  84. Alignment : Split accross interleaves
  85. Interleave, duration : 40 ms (1.00 video frame)
  86. Interleave, preload duration : 500 ms
RAW Paste Data