fant0men

Untitled

Jun 12th, 2018
95
Never
Not a member of Pastebin yet? Sign Up, it unlocks many cool features!
  1. PERFORMER "Holy Men"
  2. TITLE "C4"
  3. FILE "01-Holy_Men_-_Beavis_In_The_Haze.flac" FLAC
  4. TRACK 01 AUDIO
  5. TITLE "Beavis In The Haze"
  6. PERFORMER "Holy Men"
  7. INDEX 01 00:00:00
  8. FILE "02-Holy_Men_-_Utopia.flac" FLAC
  9. TRACK 02 AUDIO
  10. TITLE "Utopia"
  11. PERFORMER "Holy Men"
  12. INDEX 01 00:00:00
  13. FILE "03-Holy_Men_-_Simon_Said.flac" FLAC
  14. TRACK 03 AUDIO
  15. TITLE "Simon Said"
  16. PERFORMER "Holy Men"
  17. INDEX 01 00:00:00
  18. FILE "04-Holy_Men_-_Z._Melody.flac" FLAC
  19. TRACK 04 AUDIO
  20. TITLE "Z. Melody"
  21. PERFORMER "Holy Men"
  22. INDEX 01 00:00:00
  23. TRACK 05 AUDIO
  24. TITLE "Bass Drops"
  25. PERFORMER "Holy Men"
  26. INDEX 00 06:41:33
  27. FILE "05-Holy_Men_-_Bass_Drops.flac" FLAC
  28. INDEX 01 00:00:00
  29. FILE "06-Holy_Men_-_Shredder.flac" FLAC
  30. TRACK 06 AUDIO
  31. TITLE "Shredder"
  32. PERFORMER "Holy Men"
  33. INDEX 01 00:00:00
  34. FILE "07-Holy_Men_-_Desert_Storm.flac" FLAC
  35. TRACK 07 AUDIO
  36. TITLE "Desert Storm"
  37. PERFORMER "Holy Men"
  38. INDEX 01 00:00:00
  39. FILE "08-Holy_Men_-_The_Last_Universe.flac" FLAC
  40. TRACK 08 AUDIO
  41. TITLE "The Last Universe"
  42. PERFORMER "Holy Men"
  43. INDEX 01 00:00:00
RAW Paste Data