Guest User

Ride.Along.2014.1080p.BluRay.REMUX.AVC.DTS-HD.MA.5.1-EPSiLON

a guest
May 28th, 2019
45
Never
Not a member of Pastebin yet? Sign Up, it unlocks many cool features!
  1. General
  2. Unique ID                                : 293422008034671122241093005575356656075 (0xDCBF05EDEB82AABEC89FF58E75A7A9CB)
  3. Complete name                            : Ride.Along.2014.1080p.BluRay.REMUX.AVC.DTS-HD.MA.5.1-EPSiLON.mkv
  4. Format                                   : Matroska
  5. Format version                           : Version 4
  6. File size                                : 25.1 GiB
  7. Duration                                 : 1 h 39 min
  8. Overall bit rate mode                    : Variable
  9. Overall bit rate                         : 36.1 Mb/s
  10. Movie name                               : Ride Along
  11. Encoded date                             : UTC 2017-10-30 13:56:04
  12. Writing application                      : mkvmerge v17.0.0 ('Be Ur Friend') 64-bit
  13. Writing library                          : libebml v1.3.5 + libmatroska v1.4.8
  14.  
  15. Video
  16. ID                                       : 1
  17. Format                                   : AVC
  18. Format/Info                              : Advanced Video Codec
  19. Format profile                           : High@L4.1
  20. Format settings                          : CABAC / 4 Ref Frames
  21. Format settings, CABAC                   : Yes
  22. Format settings, Reference frames        : 4 frames
  23. Codec ID                                 : V_MPEG4/ISO/AVC
  24. Duration                                 : 1 h 39 min
  25. Bit rate mode                            : Variable
  26. Bit rate                                 : 32.0 Mb/s
  27. Maximum bit rate                         : 35.0 Mb/s
  28. Width                                    : 1 920 pixels
  29. Height                                   : 1 080 pixels
  30. Display aspect ratio                     : 16:9
  31. Frame rate mode                          : Constant
  32. Frame rate                               : 23.976 (24000/1001) FPS
  33. Color space                              : YUV
  34. Chroma subsampling                       : 4:2:0
  35. Bit depth                                : 8 bits
  36. Scan type                                : Progressive
  37. Bits/(Pixel*Frame)                       : 0.644
  38. Stream size                              : 22.3 GiB (89%)
  39. Title                                    : MPEG-4 AVC Video / 32194 kbps / 1080p / 23.976 fps / 16:9 / High Profile 4.1
  40. Language                                 : English
  41. Default                                  : Yes
  42. Forced                                   : No
  43.  
  44. Audio #1
  45. ID                                       : 2
  46. Format                                   : DTS XLL
  47. Format/Info                              : Digital Theater Systems
  48. Commercial name                          : DTS-HD Master Audio
  49. Codec ID                                 : A_DTS
  50. Duration                                 : 1 h 39 min
  51. Bit rate mode                            : Variable
  52. Bit rate                                 : 3 710 kb/s
  53. Channel(s)                               : 6 channels
  54. Channel layout                           : C L R Ls Rs LFE
  55. Sampling rate                            : 48.0 kHz
  56. Frame rate                               : 93.750 FPS (512 SPF)
  57. Bit depth                                : 24 bits
  58. Compression mode                         : Lossless
  59. Stream size                              : 2.58 GiB (10%)
  60. Title                                    : DTS-HD Master Audio / 5.1 / 48 kHz / 3710 kbps / 24-bit
  61. Language                                 : English
  62. Default                                  : Yes
  63. Forced                                   : No
  64.  
  65. Audio #2
  66. ID                                       : 3
  67. Format                                   : AC-3
  68. Format/Info                              : Audio Coding 3
  69. Commercial name                          : Dolby Digital
  70. Codec ID                                 : A_AC3
  71. Duration                                 : 1 h 39 min
  72. Bit rate mode                            : Constant
  73. Bit rate                                 : 192 kb/s
  74. Channel(s)                               : 2 channels
  75. Channel layout                           : L R
  76. Sampling rate                            : 48.0 kHz
  77. Frame rate                               : 31.250 FPS (1536 SPF)
  78. Bit depth                                : 16 bits
  79. Compression mode                         : Lossy
  80. Stream size                              : 137 MiB (1%)
  81. Title                                    : Commentary by Director Tim Story
  82. Language                                 : English
  83. Service kind                             : Complete Main
  84. Default                                  : No
  85. Forced                                   : No
  86.  
  87. Text #1
  88. ID                                       : 4
  89. Format                                   : PGS
  90. Codec ID                                 : S_HDMV/PGS
  91. Codec ID/Info                            : Picture based subtitle format used on BDs/HD-DVDs
  92. Duration                                 : 1 h 35 min
  93. Bit rate                                 : 72.1 kb/s
  94. Count of elements                        : 4758
  95. Stream size                              : 49.0 MiB (0%)
  96. Title                                    : SDH
  97. Language                                 : English
  98. Default                                  : No
  99. Forced                                   : No
  100.  
  101. Text #2
  102. ID                                       : 5
  103. Format                                   : PGS
  104. Codec ID                                 : S_HDMV/PGS
  105. Codec ID/Info                            : Picture based subtitle format used on BDs/HD-DVDs
  106. Duration                                 : 1 h 35 min
  107. Bit rate                                 : 59.4 kb/s
  108. Count of elements                        : 4248
  109. Stream size                              : 40.4 MiB (0%)
  110. Language                                 : French
  111. Default                                  : No
  112. Forced                                   : No
  113.  
  114. Text #3
  115. ID                                       : 6
  116. Format                                   : PGS
  117. Codec ID                                 : S_HDMV/PGS
  118. Codec ID/Info                            : Picture based subtitle format used on BDs/HD-DVDs
  119. Duration                                 : 1 h 35 min
  120. Bit rate                                 : 55.7 kb/s
  121. Count of elements                        : 4238
  122. Stream size                              : 37.9 MiB (0%)
  123. Title                                    : Latin American
  124. Language                                 : Spanish
  125. Default                                  : No
  126. Forced                                   : No
  127.  
  128. Menu
  129. 00:00:00.000                             : en: Chapter 1
  130. 00:05:09.184                             : en: Chapter 2
  131. 00:10:37.387                             : en: Chapter 3
  132. 00:14:40.922                             : en: Chapter 4
  133. 00:19:46.435                             : en: Chapter 5
  134. 00:25:03.419                             : en: Chapter 6
  135. 00:31:16.750                             : en: Chapter 7
  136. 00:35:46.394                             : en: Chapter 8
  137. 00:40:51.658                             : en: Chapter 9
  138. 00:44:31.085                             : en: Chapter 10
  139. 00:50:40.162                             : en: Chapter 11
  140. 00:54:49.995                             : en: Chapter 12
  141. 01:00:00.931                             : en: Chapter 13
  142. 01:06:13.136                             : en: Chapter 14
  143. 01:11:47.303                             : en: Chapter 15
  144. 01:18:44.553                             : en: Chapter 16
  145. 01:22:53.594                             : en: Chapter 17
  146. 01:26:27.974                             : en: Chapter 18
  147. 01:30:09.279                             : en: Chapter 19
  148. 01:35:27.347                             : en: Chapter 20
RAW Paste Data