GrabHD

Untitled

Feb 21st, 2020
151
Never
Not a member of Pastebin yet? Sign Up, it unlocks many cool features!
  1. Общее
  2. Уникальный идентификатор : 216801219011017331393418827778079387663 (0xA31A655E1CE06CCBB910D7DC60E0F00F)
  3. Полное имя : D:\Раздача\Valgalla.2019.WEB-DLRip-AVC.grab777.mkv
  4. Формат : Matroska
  5. Версия формата : Version 4 / Version 2
  6. Размер файла : 1,73 Гбайт
  7. Продолжительность : 1 ч. 45 м.
  8. Общий поток : 2360 Кбит/сек
  9. Название фильма : Valhalla 2019 WEB-DLRip-AVC.grab777
  10. Дата кодирования : UTC 2020-02-21 13:53:21
  11. Программа кодирования : mkvmerge v7.3.0 ('Nouages') 64bit built on Oct 22 2014 18:53:34
  12. Библиотека кодирования : libebml v1.3.0 + libmatroska v1.4.1
  13.  
  14. Видео
  15. Идентификатор : 1
  16. Формат : AVC
  17. Формат/Информация : Advanced Video Codec
  18. Профиль формата : High@L4.1
  19. Настройки формата : CABAC / 12 Ref Frames
  20. Параметр CABAC формата : Да
  21. Параметр RefFrames формата : 12 кадров
  22. Идентификатор кодека : V_MPEG4/ISO/AVC
  23. Продолжительность : 1 ч. 45 м.
  24. Битрейт : 1974 Кбит/сек
  25. Ширина : 1024 пикселя
  26. Высота : 432 пикселя
  27. Соотношение сторон : 2,40:1
  28. Соотношение сторон в оригинале : 2,40:1
  29. Режим частоты кадров : Постоянный
  30. Частота кадров : 24,000 кадра/сек
  31. Цветовое пространство : YUV
  32. Субдискретизация насыщенности : 4:2:0
  33. Битовая глубина : 8 бит
  34. Тип развёртки : Прогрессивная
  35. Бит/(Пиксели*Кадры) : 0.186
  36. Размер потока : 1,45 Гбайт (84%)
  37. Заголовок : Rip by grab777
  38. Библиотека кодирования : x264 core 148 r2665M a01e339
  39. Настройки программы : cabac=1 / ref=12 / deblock=1:-2:-2 / analyse=0x3:0x133 / me=umh / subme=10 / psy=1 / psy_rd=1.00:0.15 / mixed_ref=1 / me_range=32 / chroma_me=1 / trellis=2 / 8x8dct=1 / cqm=0 / deadzone=21,11 / fast_pskip=0 / chroma_qp_offset=-3 / threads=5 / lookahead_threads=1 / sliced_threads=0 / nr=0 / decimate=1 / interlaced=0 / bluray_compat=0 / constrained_intra=0 / bframes=10 / b_pyramid=2 / b_adapt=2 / b_bias=0 / direct=3 / weightb=1 / open_gop=0 / weightp=2 / keyint=240 / keyint_min=24 / scenecut=40 / intra_refresh=0 / rc_lookahead=40 / rc=crf / mbtree=1 / crf=15.6 / qcomp=0.90 / qpmin=3 / qpmax=69 / qpstep=4 / vbv_maxrate=40000 / vbv_bufsize=30000 / crf_max=31.0 / nal_hrd=none / filler=0 / ip_ratio=1.40 / aq=1:0.00
  40. Язык : English
  41. Default : Да
  42. Forced : Нет
  43. Цветовой диапазон : Limited
  44. Основные цвета : BT.709
  45. Характеристики трансфера : BT.709
  46. Коэффициенты матрицы : BT.709
  47.  
  48. Аудио
  49. Идентификатор : 2
  50. Формат : AC-3
  51. Формат/Информация : Audio Coding 3
  52. Параметр Endianness формата : Big
  53. Идентификатор кодека : A_AC3
  54. Продолжительность : 1 ч. 45 м.
  55. Вид битрейта : Постоянный
  56. Битрейт : 384 Кбит/сек
  57. Каналы : 6 каналов
  58. Расположение каналов : Front: L C R, Side: L R, LFE
  59. Частота : 48,0 КГц
  60. Частота кадров : 31,250 кадров/сек (1536 SPF)
  61. Битовая глубина : 16 бит
  62. Метод сжатия : С потерями
  63. Размер потока : 289 Мбайт (16%)
  64. Заголовок : Dub (iTunes)
  65. Язык : Russian
  66. ServiceKind/String : Complete Main
  67. Default : Да
  68. Forced : Да
  69.  
  70. Меню
  71. 00:00:00.000 : :Chapter 1
  72. 00:02:57.625 : :Chapter 2
  73. 00:12:56.041 : :Chapter 3
  74. 00:22:19.791 : :Chapter 4
  75. 00:27:54.541 : :Chapter 5
  76. 00:34:27.791 : :Chapter 6
  77. 00:39:15.624 : :Chapter 7
  78. 00:43:57.707 : :Chapter 8
  79. 00:50:24.998 : :Chapter 9
  80. 00:56:01.039 : :Chapter 10
  81. 01:01:37.455 : :Chapter 11
  82. 01:06:04.996 : :Chapter 12
  83. 01:15:25.621 : :Chapter 13
  84. 01:22:15.746 : :Chapter 14
  85. 01:29:59.371 : :Chapter 15
  86. 01:36:47.787 : :Chapter 16
RAW Paste Data