Advertisement
Henry_Kr

TD-S01

Apr 8th, 2023
115
0
Never
Not a member of Pastebin yet? Sign Up, it unlocks many cool features!
text 3.66 KB | None | 0 0
  1. Video
  2. ID : 1
  3. Format : AVC
  4. Format/Info : Advanced Video Codec
  5. Format profile : High@L4
  6. Format settings : CABAC / 4 Ref Frames
  7. Format settings, CABAC : Yes
  8. Format settings, Reference : 4 frames
  9. Codec ID : V_MPEG4/ISO/AVC
  10. Duration : 23 min 51 s
  11. Bit rate mode : Variable
  12. Bit rate : 5 016 kb/s
  13. Maximum bit rate : 12.7 Mb/s
  14. Width : 1 920 pixels
  15. Height : 1 080 pixels
  16. Display aspect ratio : 16:9
  17. Frame rate mode : Constant
  18. Frame rate : 23.976 (24000/1001) FPS
  19. Color space : YUV
  20. Chroma subsampling : 4:2:0
  21. Bit depth : 8 bits
  22. Scan type : Progressive
  23. Bits/(Pixel*Frame) : 0.101
  24. Stream size : 856 MiB (95%)
  25. Title : Tengoku.Daimakyou.S01E01.1080p.DSNP.WEB.[CartoonNOW]
  26. Language : Japanese
  27. Default : Yes
  28. Forced : No
  29. Color range : Limited
  30. Color primaries : BT.709
  31. Transfer characteristics : BT.709
  32. Matrix coefficients : BT.709
  33.  
  34. Audio #1
  35. ID : 2
  36. Format : AAC LC
  37. Format/Info : Advanced Audio Codec Low Complexity
  38. Codec ID : A_AAC-2
  39. Duration : 23 min 52 s
  40. Bit rate : 125 kb/s
  41. Channel(s) : 2 channels
  42. Channel layout : L R
  43. Sampling rate : 48.0 kHz
  44. Frame rate : 46.875 FPS (1024 SPF)
  45. Compression mode : Lossy
  46. Stream size : 21.4 MiB (2%)
  47. Title : AAC 2.0
  48. Language : Portuguese
  49. Default : Yes
  50. Forced : No
  51.  
  52. Audio #2
  53. ID : 3
  54. Format : AAC LC
  55. Format/Info : Advanced Audio Codec Low Complexity
  56. Codec ID : A_AAC-2
  57. Duration : 23 min 52 s
  58. Bit rate : 125 kb/s
  59. Channel(s) : 2 channels
  60. Channel layout : L R
  61. Sampling rate : 48.0 kHz
  62. Frame rate : 46.875 FPS (1024 SPF)
  63. Compression mode : Lossy
  64. Stream size : 21.4 MiB (2%)
  65. Title : AAC 2.0
  66. Language : Japanese
  67. Default : No
  68. Forced : No
  69.  
  70. Text #1
  71. ID : 4
  72. Format : UTF-8
  73. Codec ID : S_TEXT/UTF8
  74. Codec ID/Info : UTF-8 Plain Text
  75. Duration : 20 min 17 s
  76. Bit rate : 0 b/s
  77. Count of elements : 5
  78. Stream size : 130 Bytes (0%)
  79. Title : For├žada
  80. Language : Portuguese
  81. Default : No
  82. Forced : Yes
  83.  
  84. Text #2
  85. ID : 5
  86. Format : UTF-8
  87. Codec ID : S_TEXT/UTF8
  88. Codec ID/Info : UTF-8 Plain Text
  89. Duration : 23 min 38 s
  90. Bit rate : 59 b/s
  91. Count of elements : 341
  92. Stream size : 10.4 KiB (0%)
  93. Title : Completa
  94. Language : Portuguese
  95. Default : No
  96. Forced : No
  97.  
  98. Menu
  99. 00:02:06.626 : en:Intro
  100. 00:02:16.344 : en:Content
  101. 00:22:29.807 : en:Credits
Advertisement
Add Comment
Please, Sign In to add comment
Advertisement