SHARE
TWEET

Untitled

mft39anton Oct 18th, 2018 72 Never
Not a member of Pastebin yet? Sign Up, it unlocks many cool features!
  1. Disc Title:     IMAGINE_DISC2
  2. Disc Size:      45,661,674,898 bytes
  3. Protection:     AACS
  4. BD-Java:        No
  5. BDInfo:         0.5.8
  6.  
  7. Notes:          
  8.  
  9. BDINFO HOME:
  10.   Cinema Squid
  11.     http://www.cinemasquid.com/blu-ray/tools/bdinfo
  12.  
  13. INCLUDES FORUMS REPORT FOR:
  14.   AVS Forum Blu-ray Audio and Video Specifications Thread
  15.     http://www.avsforum.com/avs-vb/showthread.php?t=1155731
  16.  
  17.  
  18. ********************
  19. PLAYLIST: 00004.MPLS
  20. ********************
  21.  
  22. <--- BEGIN FORUMS PASTE --->
  23. [code]
  24.                                                                                                                 Total   Video                                            
  25. Title                                                           Codec   Length  Movie Size      Disc Size       Bitrate Bitrate Main Audio Track                          Secondary Audio Track
  26. -----                                                           ------  ------- --------------  --------------  ------- ------- ------------------                        ---------------------
  27. 00004.MPLS                                                      AVC     1:45:00 13,788,463,104  45,661,674,898  17.51   12.00   LPCM 2.0 4608Kbps (96kHz/24-bit)          
  28. [/code]
  29.  
  30. [code]
  31.  
  32. DISC INFO:
  33.  
  34. Disc Title:     IMAGINE_DISC2
  35. Disc Size:      45,661,674,898 bytes
  36. Protection:     AACS
  37. BD-Java:        No
  38. BDInfo:         0.5.8
  39.  
  40. PLAYLIST REPORT:
  41.  
  42. Name:                   00004.MPLS
  43. Length:                 1:45:00.419 (h:m:s.ms)
  44. Size:                   13,788,463,104 bytes
  45. Total Bitrate:          17.51 Mbps
  46.  
  47. VIDEO:
  48.  
  49. Codec                   Bitrate             Description    
  50. -----                   -------             -----------    
  51. MPEG-4 AVC Video        11998 kbps          1080p / 23.976 fps / 16:9 / High Profile 4.1
  52.  
  53. AUDIO:
  54.  
  55. Codec                           Language        Bitrate         Description    
  56. -----                           --------        -------         -----------    
  57. LPCM Audio                      English         4608 kbps       2.0 / 96 kHz / 4608 kbps / 24-bit
  58.  
  59. FILES:
  60.  
  61. Name            Time In         Length          Size            Total Bitrate  
  62. ----            -------         ------          ----            -------------  
  63. 00008.M2TS      0:00:00.000     0:00:02.001     4,448,256       17,775          
  64. 00016.M2TS      0:00:02.001     1:00:04.058     7,887,446,016   17,508          
  65. 00017.M2TS      1:00:06.060     0:44:54.358     5,896,568,832   17,508          
  66.  
  67. CHAPTERS:
  68.  
  69. Number          Time In         Length          Avg Video Rate  Max 1-Sec Rate  Max 1-Sec Time  Max 5-Sec Rate  Max 5-Sec Time  Max 10Sec Rate  Max 10Sec Time  Avg Frame Size  Max Frame Size  Max Frame Time  
  70. ------          -------         ------          --------------  --------------  --------------  --------------  --------------  --------------  --------------  --------------  --------------  --------------  
  71. 1               0:00:00.000     0:06:52.787     11,997 kbps     16,344 kbps     00:05:42.508    13,270 kbps     00:05:42.425    12,559 kbps     00:00:55.388    62,543 bytes    474,736 bytes   00:00:00.959    
  72. 2               0:06:52.787     0:03:59.364     11,988 kbps     16,136 kbps     00:07:37.623    13,348 kbps     00:07:37.498    12,596 kbps     00:07:31.576    62,500 bytes    442,296 bytes   00:10:42.808    
  73. 3               0:10:52.151     0:06:15.208     12,001 kbps     16,215 kbps     00:13:23.928    13,240 kbps     00:13:22.885    12,573 kbps     00:13:17.880    62,568 bytes    441,628 bytes   00:16:29.113    
  74. 4               0:17:07.359     0:06:49.242     11,996 kbps     16,298 kbps     00:19:10.232    13,266 kbps     00:22:59.419    12,588 kbps     00:22:54.414    62,544 bytes    442,834 bytes   00:20:19.343    
  75. 5               0:23:56.601     0:07:06.467     12,007 kbps     16,392 kbps     00:30:41.881    13,241 kbps     00:28:45.723    12,575 kbps     00:25:53.802    62,601 bytes    442,824 bytes   00:24:10.532    
  76. 6               0:31:03.069     0:05:12.520     11,994 kbps     16,076 kbps     00:34:32.111    13,264 kbps     00:32:36.913    12,600 kbps     00:33:35.221    62,532 bytes    442,277 bytes   00:33:47.066    
  77. 7               0:36:15.590     0:07:31.033     12,002 kbps     16,529 kbps     00:36:28.185    13,328 kbps     00:38:22.258    12,601 kbps     00:42:07.483    62,573 bytes    443,346 bytes   00:41:28.486    
  78. 8               0:43:46.623     0:08:17.205     11,999 kbps     16,454 kbps     00:46:04.720    13,281 kbps     00:51:49.940    12,559 kbps     00:51:44.017    62,556 bytes    441,105 bytes   00:47:13.831    
  79. 9               0:52:03.829     0:08:02.231     11,997 kbps     16,022 kbps     00:57:36.369    13,229 kbps     00:55:40.211    12,571 kbps     00:57:30.321    62,549 bytes    442,373 bytes   00:54:55.250    
  80. 10              1:00:06.060     0:03:56.319     11,974 kbps     16,298 kbps     01:03:22.673    13,168 kbps     01:03:21.631    12,529 kbps     01:00:30.668    62,426 bytes    442,503 bytes   01:02:36.669    
  81. 11              1:04:02.380     0:05:29.203     11,997 kbps     16,185 kbps     01:07:12.903    13,270 kbps     01:07:11.861    12,593 kbps     01:07:06.856    62,544 bytes    442,957 bytes   01:04:31.784    
  82. 12              1:09:31.584     0:03:06.019     12,009 kbps     15,950 kbps     01:12:09.324    13,207 kbps     01:11:03.050    12,568 kbps     01:10:06.243    62,610 bytes    440,467 bytes   01:12:13.203    
  83. 13              1:12:37.603     0:08:36.265     11,995 kbps     16,709 kbps     01:20:40.627    13,305 kbps     01:20:39.584    12,565 kbps     01:19:42.777    62,538 bytes    442,384 bytes   01:17:59.508    
  84. 14              1:21:13.868     0:02:17.595     12,027 kbps     16,268 kbps     01:22:35.742    13,326 kbps     01:22:34.699    12,587 kbps     01:22:29.694    62,705 bytes    440,004 bytes   01:21:49.738    
  85. 15              1:23:31.464     0:04:05.328     11,991 kbps     15,910 kbps     01:24:30.857    13,283 kbps     01:26:25.847    12,579 kbps     01:26:19.924    62,517 bytes    443,569 bytes   01:25:40.927    
  86. 16              1:27:36.793     0:17:22.624     12,000 kbps     16,453 kbps     01:30:17.161    13,270 kbps     01:36:02.381    12,566 kbps     01:40:51.920    62,563 bytes    442,533 bytes   01:39:07.691    
  87. 17              1:44:59.418     0:00:01.000     11,401 kbps     0 kbps          00:00:00.000    0 kbps          00:00:00.000    0 kbps          00:00:00.000    62,022 bytes    402,642 bytes   01:44:59.751    
  88.  
  89. STREAM DIAGNOSTICS:
  90.  
  91. File            PID             Type            Codec           Language                Seconds                 Bitrate                 Bytes           Packets        
  92. ----            ---             ----            -----           --------                --------------          --------------          -------------   -----          
  93. 00008.M2TS      4113 (0x1011)   0x1B            AVC                                     1.919                   12,774                  3,063,510       16,676          
  94. 00008.M2TS      4352 (0x1100)   0x80            LPCM            eng (English)           1.919                   4,822                   1,156,484       6,416          
  95. 00016.M2TS      4113 (0x1011)   0x1B            AVC                                     3603.975                11,998                  5,405,234,186   29,426,744      
  96. 00016.M2TS      4352 (0x1100)   0x80            LPCM            eng (English)           3603.975                4,615                   2,078,821,808   11,532,992      
  97. 00017.M2TS      4113 (0x1011)   0x1B            AVC                                     2694.192                11,999                  4,040,882,687   21,999,100      
  98. 00017.M2TS      4352 (0x1100)   0x80            LPCM            eng (English)           2694.192                4,615                   1,554,103,964   8,621,936      
  99.  
  100. [/code]
  101. <---- END FORUMS PASTE ---->
  102.  
  103. QUICK SUMMARY:
  104.  
  105. Disc Title: IMAGINE_DISC2
  106. Disc Size: 45,661,674,898 bytes
  107. Protection: AACS
  108. BD-Java: No
  109. Playlist: 00004.MPLS
  110. Size: 13,788,463,104 bytes
  111. Length: 1:45:00.419
  112. Total Bitrate: 17.51 Mbps
  113. Video: MPEG-4 AVC Video / 11998 kbps / 1080p / 23.976 fps / 16:9 / High Profile 4.1
  114. Audio: English / LPCM Audio / 2.0 / 96 kHz / 4608 kbps / 24-bit
  115.  
  116.  
  117. ********************
  118. PLAYLIST: 00002.MPLS
  119. ********************
  120.  
  121. <--- BEGIN FORUMS PASTE --->
  122. [code]
  123.                                                                                                                 Total   Video                                            
  124. Title                                                           Codec   Length  Movie Size      Disc Size       Bitrate Bitrate Main Audio Track                          Secondary Audio Track
  125. -----                                                           ------  ------- --------------  --------------  ------- ------- ------------------                        ---------------------
  126. 00002.MPLS                                                      AVC     0:54:35 10,921,936,896  45,661,674,898  26.67   12.00   LPCM 2.0 4608Kbps (96kHz/24-bit)          DTS-HD Master 5.1 8564Kbps (96kHz/24-bit)
  127. [/code]
  128.  
  129. [code]
  130.  
  131. DISC INFO:
  132.  
  133. Disc Title:     IMAGINE_DISC2
  134. Disc Size:      45,661,674,898 bytes
  135. Protection:     AACS
  136. BD-Java:        No
  137. BDInfo:         0.5.8
  138.  
  139. PLAYLIST REPORT:
  140.  
  141. Name:                   00002.MPLS
  142. Length:                 0:54:35.772 (h:m:s.ms)
  143. Size:                   10,921,936,896 bytes
  144. Total Bitrate:          26.67 Mbps
  145.  
  146. VIDEO:
  147.  
  148. Codec                   Bitrate             Description    
  149. -----                   -------             -----------    
  150. MPEG-4 AVC Video        11998 kbps          1080p / 23.976 fps / 16:9 / High Profile 4.1
  151.  
  152. AUDIO:
  153.  
  154. Codec                           Language        Bitrate         Description    
  155. -----                           --------        -------         -----------    
  156. LPCM Audio                      English         4608 kbps       2.0 / 96 kHz / 4608 kbps / 24-bit
  157. DTS-HD Master Audio             English         8564 kbps       5.1 / 96 kHz / 8564 kbps / 24-bit (DTS Core: 5.1 / 48 kHz / 1509 kbps / 24-bit)
  158.  
  159. FILES:
  160.  
  161. Name            Time In         Length          Size            Total Bitrate  
  162. ----            -------         ------          ----            -------------  
  163. 00007.M2TS      0:00:00.000     0:54:35.772     10,921,936,896  26,673          
  164.  
  165. CHAPTERS:
  166.  
  167. Number          Time In         Length          Avg Video Rate  Max 1-Sec Rate  Max 1-Sec Time  Max 5-Sec Rate  Max 5-Sec Time  Max 10Sec Rate  Max 10Sec Time  Avg Frame Size  Max Frame Size  Max Frame Time  
  168. ------          -------         ------          --------------  --------------  --------------  --------------  --------------  --------------  --------------  --------------  --------------  --------------  
  169. 1               0:00:00.000     0:03:27.916     11,979 kbps     16,697 kbps     00:01:50.276    13,114 kbps     00:01:49.150    12,520 kbps     00:02:54.257    62,440 bytes    446,703 bytes   00:02:59.387    
  170. 2               0:03:27.916     0:05:23.072     12,000 kbps     16,328 kbps     00:05:40.506    13,385 kbps     00:07:35.496    12,572 kbps     00:07:30.533    62,562 bytes    450,806 bytes   00:07:39.500    
  171. 3               0:08:50.988     0:03:49.854     12,013 kbps     16,400 kbps     00:09:31.696    13,221 kbps     00:11:25.685    12,569 kbps     00:12:30.791    62,630 bytes    448,244 bytes   00:10:40.806    
  172. 4               0:12:40.843     0:04:39.237     11,993 kbps     16,499 kbps     00:17:13.115    13,275 kbps     00:13:20.841    12,553 kbps     00:13:15.878    62,528 bytes    447,866 bytes   00:16:27.111    
  173. 5               0:17:20.080     0:05:06.305     11,993 kbps     16,588 kbps     00:19:08.230    13,238 kbps     00:21:02.344    12,561 kbps     00:20:12.211    62,526 bytes    448,710 bytes   00:20:17.341    
  174. 6               0:22:26.386     0:08:40.895     11,999 kbps     16,616 kbps     00:30:39.879    13,263 kbps     00:28:43.638    12,582 kbps     00:25:57.555    62,555 bytes    448,426 bytes   00:24:08.530    
  175. 7               0:31:07.282     0:07:02.255     12,004 kbps     16,573 kbps     00:32:34.994    13,245 kbps     00:36:25.057    12,586 kbps     00:31:43.860    62,585 bytes    448,184 bytes   00:33:45.064    
  176. 8               0:38:09.537     0:06:18.544     11,999 kbps     16,657 kbps     00:38:21.299    13,359 kbps     00:38:20.297    12,577 kbps     00:38:15.251    62,560 bytes    448,976 bytes   00:41:26.484    
  177. 9               0:44:28.082     0:03:46.601     11,996 kbps     16,723 kbps     00:46:02.718    13,186 kbps     00:47:56.790    12,561 kbps     00:47:06.698    62,542 bytes    446,819 bytes   00:47:11.829    
  178. 10              0:48:14.683     0:06:20.088     11,996 kbps     16,470 kbps     00:53:44.137    13,329 kbps     00:51:47.938    12,567 kbps     00:49:00.854    62,543 bytes    446,271 bytes   00:49:06.944    
  179. 11              0:54:34.771     0:00:01.000     11,061 kbps     0 kbps          00:00:00.000    0 kbps          00:00:00.000    0 kbps          00:00:00.000    60,172 bytes    407,249 bytes   00:54:35.021    
  180.  
  181. STREAM DIAGNOSTICS:
  182.  
  183. File            PID             Type            Codec           Language                Seconds                 Bitrate                 Bytes           Packets        
  184. ----            ---             ----            -----           --------                --------------          --------------          -------------   -----          
  185. 00007.M2TS      4113 (0x1011)   0x1B            AVC                                     3275.647                11,998                  4,912,685,830   26,745,296      
  186. 00007.M2TS      4352 (0x1100)   0x80            LPCM            eng (English)           3275.647                4,615                   1,889,464,136   10,482,464      
  187. 00007.M2TS      4353 (0x1101)   0x86            DTS-HD MA       eng (English)           3275.647                8,565                   3,506,912,664   19,547,558      
  188.  
  189. [/code]
  190. <---- END FORUMS PASTE ---->
  191.  
  192. QUICK SUMMARY:
  193.  
  194. Disc Title: IMAGINE_DISC2
  195. Disc Size: 45,661,674,898 bytes
  196. Protection: AACS
  197. BD-Java: No
  198. Playlist: 00002.MPLS
  199. Size: 10,921,936,896 bytes
  200. Length: 0:54:35.772
  201. Total Bitrate: 26.67 Mbps
  202. Video: MPEG-4 AVC Video / 11998 kbps / 1080p / 23.976 fps / 16:9 / High Profile 4.1
  203. Audio: English / LPCM Audio / 2.0 / 96 kHz / 4608 kbps / 24-bit
  204. Audio: English / DTS-HD Master Audio / 5.1 / 96 kHz / 8564 kbps / 24-bit (DTS Core: 5.1 / 48 kHz / 1509 kbps / 24-bit)
  205.  
  206.  
  207. ********************
  208. PLAYLIST: 00001.MPLS
  209. ********************
  210.  
  211. <--- BEGIN FORUMS PASTE --->
  212. [code]
  213.                                                                                                                 Total   Video                                            
  214. Title                                                           Codec   Length  Movie Size      Disc Size       Bitrate Bitrate Main Audio Track                          Secondary Audio Track
  215. -----                                                           ------  ------- --------------  --------------  ------- ------- ------------------                        ---------------------
  216. 00001.MPLS                                                      AVC     0:46:20 9,304,000,512   45,661,674,898  26.76   12.00   LPCM 2.0 4608Kbps (96kHz/24-bit)          DTS-HD Master 5.1 8654Kbps (96kHz/24-bit)
  217. [/code]
  218.  
  219. [code]
  220.  
  221. DISC INFO:
  222.  
  223. Disc Title:     IMAGINE_DISC2
  224. Disc Size:      45,661,674,898 bytes
  225. Protection:     AACS
  226. BD-Java:        No
  227. BDInfo:         0.5.8
  228.  
  229. PLAYLIST REPORT:
  230.  
  231. Name:                   00001.MPLS
  232. Length:                 0:46:20.986 (h:m:s.ms)
  233. Size:                   9,304,000,512 bytes
  234. Total Bitrate:          26.76 Mbps
  235.  
  236. VIDEO:
  237.  
  238. Codec                   Bitrate             Description    
  239. -----                   -------             -----------    
  240. MPEG-4 AVC Video        11998 kbps          1080p / 23.976 fps / 16:9 / High Profile 4.1
  241.  
  242. AUDIO:
  243.  
  244. Codec                           Language        Bitrate         Description    
  245. -----                           --------        -------         -----------    
  246. LPCM Audio                      English         4608 kbps       2.0 / 96 kHz / 4608 kbps / 24-bit
  247. DTS-HD Master Audio             English         8654 kbps       5.1 / 96 kHz / 8654 kbps / 24-bit (DTS Core: 5.1 / 48 kHz / 1509 kbps / 24-bit)
  248.  
  249. FILES:
  250.  
  251. Name            Time In         Length          Size            Total Bitrate  
  252. ----            -------         ------          ----            -------------  
  253. 00011.M2TS      0:00:00.000     0:00:02.001     5,025,792       20,083          
  254. 00006.M2TS      0:00:02.001     0:46:18.984     9,298,974,720   26,769          
  255.  
  256. CHAPTERS:
  257.  
  258. Number          Time In         Length          Avg Video Rate  Max 1-Sec Rate  Max 1-Sec Time  Max 5-Sec Rate  Max 5-Sec Time  Max 10Sec Rate  Max 10Sec Time  Avg Frame Size  Max Frame Size  Max Frame Time  
  259. ------          -------         ------          --------------  --------------  --------------  --------------  --------------  --------------  --------------  --------------  --------------  --------------  
  260. 1               0:00:00.000     0:03:13.651     11,974 kbps     16,515 kbps     00:01:52.278    13,191 kbps     00:01:51.236    12,532 kbps     00:02:56.259    62,413 bytes    488,518 bytes   00:00:00.959    
  261. 2               0:03:13.651     0:03:50.521     12,011 kbps     16,453 kbps     00:05:42.508    13,274 kbps     00:05:42.425    12,564 kbps     00:03:41.346    62,618 bytes    450,154 bytes   00:04:56.504    
  262. 3               0:07:04.173     0:04:21.678     11,992 kbps     16,291 kbps     00:07:38.583    13,302 kbps     00:07:37.498    12,549 kbps     00:07:31.576    62,522 bytes    452,081 bytes   00:10:42.808    
  263. 4               0:11:25.851     0:02:42.328     12,009 kbps     16,610 kbps     00:13:23.928    13,298 kbps     00:13:22.885    12,577 kbps     00:12:32.793    62,610 bytes    451,103 bytes   00:12:37.923    
  264. 5               0:14:08.180     0:09:36.951     11,995 kbps     16,649 kbps     00:19:10.232    13,320 kbps     00:22:59.419    12,583 kbps     00:22:54.414    62,537 bytes    452,604 bytes   00:20:19.343    
  265. 6               0:23:45.132     0:03:40.178     12,014 kbps     16,454 kbps     00:24:56.536    13,321 kbps     00:26:50.609    12,572 kbps     00:24:04.443    62,634 bytes    452,491 bytes   00:24:10.532    
  266. 7               0:27:25.310     0:02:47.500     11,987 kbps     16,424 kbps     00:28:46.766    13,294 kbps     00:28:45.682    12,563 kbps     00:27:54.673    62,497 bytes    451,495 bytes   00:29:55.877    
  267. 8               0:30:12.811     0:06:06.366     12,004 kbps     16,511 kbps     00:30:41.881    13,271 kbps     00:30:40.839    12,593 kbps     00:35:36.092    62,583 bytes    451,962 bytes   00:31:50.992    
  268. 9               0:36:19.177     0:03:49.187     11,996 kbps     16,616 kbps     00:36:28.185    13,345 kbps     00:38:22.258    12,569 kbps     00:38:17.253    62,541 bytes    451,063 bytes   00:39:32.411    
  269. 10              0:40:08.364     0:06:11.621     11,998 kbps     16,630 kbps     00:46:04.720    13,344 kbps     00:42:12.488    12,595 kbps     00:41:18.559    62,551 bytes    452,764 bytes   00:41:28.486    
  270. 11              0:46:19.985     0:00:01.000     11,258 kbps     0 kbps          00:00:00.000    0 kbps          00:00:00.000    0 kbps          00:00:00.000    61,249 bytes    420,758 bytes   00:46:20.110    
  271.  
  272. STREAM DIAGNOSTICS:
  273.  
  274. File            PID             Type            Codec           Language                Seconds                 Bitrate                 Bytes           Packets        
  275. ----            ---             ----            -----           --------                --------------          --------------          -------------   -----          
  276. 00011.M2TS      4113 (0x1011)   0x1B            AVC                                     1.919                   12,743                  3,056,016       16,636          
  277. 00011.M2TS      4352 (0x1100)   0x80            LPCM            eng (English)           1.919                   4,822                   1,156,484       6,416          
  278. 00011.M2TS      4353 (0x1101)   0x86            DTS-HD MA       eng (English)           1.919                   2,102                   504,144         3,008          
  279. 00006.M2TS      4113 (0x1011)   0x1B            AVC                                     2778.859                11,998                  4,167,647,774   22,689,043      
  280. 00006.M2TS      4352 (0x1100)   0x80            LPCM            eng (English)           2778.859                4,615                   1,602,918,548   8,892,752      
  281. 00006.M2TS      4353 (0x1101)   0x86            DTS-HD MA       eng (English)           2778.859                8,659                   3,007,838,940   16,757,257      
  282.  
  283. [/code]
  284. <---- END FORUMS PASTE ---->
  285.  
  286. QUICK SUMMARY:
  287.  
  288. Disc Title: IMAGINE_DISC2
  289. Disc Size: 45,661,674,898 bytes
  290. Protection: AACS
  291. BD-Java: No
  292. Playlist: 00001.MPLS
  293. Size: 9,304,000,512 bytes
  294. Length: 0:46:20.986
  295. Total Bitrate: 26.76 Mbps
  296. Video: MPEG-4 AVC Video / 11998 kbps / 1080p / 23.976 fps / 16:9 / High Profile 4.1
  297. Audio: English / LPCM Audio / 2.0 / 96 kHz / 4608 kbps / 24-bit
  298. Audio: English / DTS-HD Master Audio / 5.1 / 96 kHz / 8654 kbps / 24-bit (DTS Core: 5.1 / 48 kHz / 1509 kbps / 24-bit)
  299.  
  300.  
  301. ********************
  302. PLAYLIST: 00003.MPLS
  303. ********************
  304.  
  305. <--- BEGIN FORUMS PASTE --->
  306. [code]
  307.                                                                                                                 Total   Video                                            
  308. Title                                                           Codec   Length  Movie Size      Disc Size       Bitrate Bitrate Main Audio Track                          Secondary Audio Track
  309. -----                                                           ------  ------- --------------  --------------  ------- ------- ------------------                        ---------------------
  310. 00003.MPLS                                                      AVC     0:35:35 6,777,593,856   45,661,674,898  25.39   12.00   LPCM 2.0 4608Kbps (96kHz/24-bit)          DTS-HD Master 5.1 7323Kbps (96kHz/24-bit)
  311. [/code]
  312.  
  313. [code]
  314.  
  315. DISC INFO:
  316.  
  317. Disc Title:     IMAGINE_DISC2
  318. Disc Size:      45,661,674,898 bytes
  319. Protection:     AACS
  320. BD-Java:        No
  321. BDInfo:         0.5.8
  322.  
  323. PLAYLIST REPORT:
  324.  
  325. Name:                   00003.MPLS
  326. Length:                 0:35:35.800 (h:m:s.ms)
  327. Size:                   6,777,593,856 bytes
  328. Total Bitrate:          25.39 Mbps
  329.  
  330. VIDEO:
  331.  
  332. Codec                   Bitrate             Description    
  333. -----                   -------             -----------    
  334. MPEG-4 AVC Video        11998 kbps          1080p / 23.976 fps / 16:9 / High Profile 4.1
  335.  
  336. AUDIO:
  337.  
  338. Codec                           Language        Bitrate         Description    
  339. -----                           --------        -------         -----------    
  340. LPCM Audio                      English         4608 kbps       2.0 / 96 kHz / 4608 kbps / 24-bit
  341. DTS-HD Master Audio             English         7323 kbps       5.1 / 96 kHz / 7323 kbps / 24-bit (DTS Core: 5.1 / 48 kHz / 1509 kbps / 24-bit)
  342.  
  343. FILES:
  344.  
  345. Name            Time In         Length          Size            Total Bitrate  
  346. ----            -------         ------          ----            -------------  
  347. 00015.M2TS      0:00:00.000     0:00:02.001     5,050,368       20,181          
  348. 00000.M2TS      0:00:02.001     0:35:33.798     6,772,543,488   25,392          
  349.  
  350. CHAPTERS:
  351.  
  352. Number          Time In         Length          Avg Video Rate  Max 1-Sec Rate  Max 1-Sec Time  Max 5-Sec Rate  Max 5-Sec Time  Max 10Sec Rate  Max 10Sec Time  Avg Frame Size  Max Frame Size  Max Frame Time  
  353. ------          -------         ------          --------------  --------------  --------------  --------------  --------------  --------------  --------------  --------------  --------------  --------------  
  354. 1               0:00:00.000     0:02:15.635     11,980 kbps     16,194 kbps     00:00:01.793    13,066 kbps     00:01:51.194    12,473 kbps     00:00:56.306    62,440 bytes    461,105 bytes   00:00:00.959    
  355. 2               0:02:15.635     0:03:39.385     12,004 kbps     16,006 kbps     00:05:42.508    13,184 kbps     00:05:42.383    12,479 kbps     00:03:42.305    62,582 bytes    422,018 bytes   00:03:01.389    
  356. 3               0:05:55.021     0:04:14.003     11,987 kbps     15,865 kbps     00:07:38.583    13,245 kbps     00:07:37.498    12,551 kbps     00:07:31.576    62,492 bytes    424,360 bytes   00:07:41.502    
  357. 4               0:10:09.025     0:00:59.684     12,053 kbps     15,359 kbps     00:10:41.807    12,958 kbps     00:10:37.803    12,480 kbps     00:10:37.678    62,841 bytes    423,473 bytes   00:10:42.808    
  358. 5               0:11:08.709     0:06:08.367     12,007 kbps     16,710 kbps     00:13:23.928    13,204 kbps     00:11:27.770    12,546 kbps     00:11:22.765    62,601 bytes    423,916 bytes   00:11:32.692    
  359. 6               0:17:17.077     0:03:18.114     11,979 kbps     16,208 kbps     00:19:10.232    13,168 kbps     00:19:09.231    12,494 kbps     00:20:14.213    62,452 bytes    424,581 bytes   00:17:18.037    
  360. 7               0:20:35.192     0:01:57.826     12,004 kbps     16,121 kbps     00:21:05.347    13,151 kbps     00:21:05.222    12,511 kbps     00:22:09.328    62,583 bytes    421,473 bytes   00:22:14.458    
  361. 8               0:22:33.018     0:05:01.759     11,993 kbps     16,279 kbps     00:24:56.536    13,220 kbps     00:23:00.337    12,541 kbps     00:24:00.605    62,524 bytes    423,861 bytes   00:23:04.341    
  362. 9               0:27:34.778     0:03:38.676     12,001 kbps     16,170 kbps     00:30:41.881    13,242 kbps     00:28:45.682    12,529 kbps     00:30:36.793    62,567 bytes    424,268 bytes   00:28:50.645    
  363. 10              0:31:13.454     0:04:21.344     12,006 kbps     16,227 kbps     00:32:36.996    13,223 kbps     00:32:35.912    12,574 kbps     00:32:30.949    62,593 bytes    423,451 bytes   00:32:40.875    
  364. 11              0:35:34.799     0:00:01.000     10,932 kbps     0 kbps          00:00:00.000    0 kbps          00:00:00.000    0 kbps          00:00:00.000    59,474 bytes    406,735 bytes   00:35:35.466    
  365.  
  366. STREAM DIAGNOSTICS:
  367.  
  368. File            PID             Type            Codec           Language                Seconds                 Bitrate                 Bytes           Packets        
  369. ----            ---             ----            -----           --------                --------------          --------------          -------------   -----          
  370. 00015.M2TS      4113 (0x1011)   0x1B            AVC                                     1.919                   12,851                  3,082,028       16,777          
  371. 00015.M2TS      4352 (0x1100)   0x80            LPCM            eng (English)           1.919                   4,822                   1,156,484       6,416          
  372. 00015.M2TS      4353 (0x1101)   0x86            DTS-HD MA       eng (English)           1.919                   2,102                   504,144         3,008          
  373. 00000.M2TS      4113 (0x1011)   0x1B            AVC                                     2133.715                11,998                  3,200,035,732   17,421,385      
  374. 00000.M2TS      4352 (0x1100)   0x80            LPCM            eng (English)           2133.715                4,615                   1,230,775,840   6,828,160      
  375. 00000.M2TS      4353 (0x1101)   0x86            DTS-HD MA       eng (English)           2133.715                7,328                   1,954,562,652   10,952,622      
  376.  
  377. [/code]
  378. <---- END FORUMS PASTE ---->
  379.  
  380. QUICK SUMMARY:
  381.  
  382. Disc Title: IMAGINE_DISC2
  383. Disc Size: 45,661,674,898 bytes
  384. Protection: AACS
  385. BD-Java: No
  386. Playlist: 00003.MPLS
  387. Size: 6,777,593,856 bytes
  388. Length: 0:35:35.800
  389. Total Bitrate: 25.39 Mbps
  390. Video: MPEG-4 AVC Video / 11998 kbps / 1080p / 23.976 fps / 16:9 / High Profile 4.1
  391. Audio: English / LPCM Audio / 2.0 / 96 kHz / 4608 kbps / 24-bit
  392. Audio: English / DTS-HD Master Audio / 5.1 / 96 kHz / 7323 kbps / 24-bit (DTS Core: 5.1 / 48 kHz / 1509 kbps / 24-bit)
  393.  
  394.  
  395. ********************
  396. PLAYLIST: 00000.MPLS
  397. ********************
  398.  
  399. <--- BEGIN FORUMS PASTE --->
  400. [code]
  401.                                                                                                                 Total   Video                                            
  402. Title                                                           Codec   Length  Movie Size      Disc Size       Bitrate Bitrate Main Audio Track                          Secondary Audio Track
  403. -----                                                           ------  ------- --------------  --------------  ------- ------- ------------------                        ---------------------
  404. 00000.MPLS                                                      AVC     0:29:40 3,892,684,800   45,661,674,898  17.49   12.00   LPCM 2.0 4608Kbps (96kHz/24-bit)          
  405. [/code]
  406.  
  407. [code]
  408.  
  409. DISC INFO:
  410.  
  411. Disc Title:     IMAGINE_DISC2
  412. Disc Size:      45,661,674,898 bytes
  413. Protection:     AACS
  414. BD-Java:        No
  415. BDInfo:         0.5.8
  416.  
  417. PLAYLIST REPORT:
  418.  
  419. Name:                   00000.MPLS
  420. Length:                 0:29:40.445 (h:m:s.ms)
  421. Size:                   3,892,684,800 bytes
  422. Total Bitrate:          17.49 Mbps
  423.  
  424. VIDEO:
  425.  
  426. Codec                   Bitrate             Description    
  427. -----                   -------             -----------    
  428. MPEG-4 AVC Video        11996 kbps          1080p / 23.976 fps / 16:9 / High Profile 4.1
  429.  
  430. AUDIO:
  431.  
  432. Codec                           Language        Bitrate         Description    
  433. -----                           --------        -------         -----------    
  434. LPCM Audio                      English         4608 kbps       2.0 / 96 kHz / 4608 kbps / 24-bit
  435.  
  436. FILES:
  437.  
  438. Name            Time In         Length          Size            Total Bitrate  
  439. ----            -------         ------          ----            -------------  
  440. 00003.M2TS      0:00:00.000     0:29:40.445     3,892,684,800   17,491          
  441.  
  442. CHAPTERS:
  443.  
  444. Number          Time In         Length          Avg Video Rate  Max 1-Sec Rate  Max 1-Sec Time  Max 5-Sec Rate  Max 5-Sec Time  Max 10Sec Rate  Max 10Sec Time  Avg Frame Size  Max Frame Size  Max Frame Time  
  445. ------          -------         ------          --------------  --------------  --------------  --------------  --------------  --------------  --------------  --------------  --------------  --------------  
  446. 1               0:00:00.000     0:29:39.444     11,996 kbps     16,141 kbps     00:24:53.575    12,970 kbps     00:15:16.957    12,545 kbps     00:22:06.366    62,540 bytes    382,580 bytes   00:19:08.272    
  447. 2               0:29:39.444     0:00:01.000     11,656 kbps     0 kbps          00:00:00.000    0 kbps          00:00:00.000    0 kbps          00:00:00.000    63,413 bytes    302,894 bytes   00:29:39.486    
  448.  
  449. STREAM DIAGNOSTICS:
  450.  
  451. File            PID             Type            Codec           Language                Seconds                 Bitrate                 Bytes           Packets        
  452. ----            ---             ----            -----           --------                --------------          --------------          -------------   -----          
  453. 00003.M2TS      4113 (0x1011)   0x1B            AVC                                     1780.362                11,996                  2,669,710,820   14,534,177      
  454. 00003.M2TS      4352 (0x1100)   0x80            LPCM            eng (English)           1780.362                4,601                   1,023,923,824   5,680,576      
  455.  
  456. [/code]
  457. <---- END FORUMS PASTE ---->
  458.  
  459. QUICK SUMMARY:
  460.  
  461. Disc Title: IMAGINE_DISC2
  462. Disc Size: 45,661,674,898 bytes
  463. Protection: AACS
  464. BD-Java: No
  465. Playlist: 00000.MPLS
  466. Size: 3,892,684,800 bytes
  467. Length: 0:29:40.445
  468. Total Bitrate: 17.49 Mbps
  469. Video: MPEG-4 AVC Video / 11996 kbps / 1080p / 23.976 fps / 16:9 / High Profile 4.1
  470. Audio: English / LPCM Audio / 2.0 / 96 kHz / 4608 kbps / 24-bit
RAW Paste Data
We use cookies for various purposes including analytics. By continuing to use Pastebin, you agree to our use of cookies as described in the Cookies Policy. OK, I Understand
Not a member of Pastebin yet?
Sign Up, it unlocks many cool features!
 
Top