SHARE
TWEET

Untitled

mft39anton Nov 23rd, 2017 385 Never
Not a member of Pastebin yet? Sign Up, it unlocks many cool features!
  1. General
  2. Complete name                            : Mafiosa S04 E07 - Hardcoded Eng Subs - Sno.mp4
  3. Format                                   : MPEG-4
  4. Format profile                           : Base Media / Version 2
  5. Codec ID                                 : mp42 (isom/iso2/avc1/mp41)
  6. File size                                : 424 MiB
  7. Duration                                 : 50 min 45 s
  8. Overall bit rate mode                    : Variable
  9. Overall bit rate                         : 1 167 kb/s
  10.  
  11.  
  12. Video
  13. ID                                       : 1
  14. Format                                   : AVC
  15. Format/Info                              : Advanced Video Codec
  16. Format profile                           : High@L4.1
  17. Format settings, CABAC                   : Yes
  18. Format settings, ReFrames                : 5 frames
  19. Codec ID                                 : avc1
  20. Codec ID/Info                            : Advanced Video Coding
  21. Duration                                 : 50 min 45 s
  22. Bit rate                                 : 1 031 kb/s
  23. Width                                    : 852 pixels
  24. Height                                   : 480 pixels
  25. Display aspect ratio                     : 16:9
  26. Frame rate mode                          : Constant
  27. Frame rate                               : 29.970 FPS
  28. Color space                              : YUV
  29. Chroma subsampling                       : 4:2:0
  30. Bit depth                                : 8 bits
  31. Scan type                                : Progressive
  32. Bits/(Pixel*Frame)                       : 0.084
  33. Stream size                              : 374 MiB (88%)
  34. Writing library                          : x264
  35.  
  36. Audio
  37. ID                                       : 2
  38. Format                                   : AAC
  39. Format/Info                              : Advanced Audio Codec
  40. Format profile                           : LC
  41. Codec ID                                 : 40
  42. Duration                                 : 50 min 45 s
  43. Bit rate mode                            : Variable
  44. Bit rate                                 : 128 kb/s
  45. Channel(s)                               : 2 channels
  46. Channel positions                        : Front: L R
  47. Sampling rate                            : 48.0 kHz
  48. Frame rate                               : 46.875 FPS (1024 spf)
  49. Compression mode                         : Lossy
  50. Stream size                              : 46.6 MiB (11%)
  51. Title                                    : Stereo / Stereo
  52. Default                                  : Yes
  53. Alternate group                          : 1
RAW Paste Data
We use cookies for various purposes including analytics. By continuing to use Pastebin, you agree to our use of cookies as described in the Cookies Policy. OK, I Understand
 
Top