Guest User

The.Big.Blue.1988.1080p.BluRay.x264-CiNEFiLE

a guest
May 23rd, 2019
33
Never
Not a member of Pastebin yet? Sign Up, it unlocks many cool features!
  1. General
  2. Unique ID                                : 209956335406238758710159039067357994502 (0x9DF41E8CE3218250975653C936605E06)
  3. Complete name                            : The.Big.Blue.1988.1080p.BluRay.x264-CiNEFiLE.mkv
  4. Format                                   : Matroska
  5. Format version                           : Version 2
  6. File size                                : 10.9 GiB
  7. Duration                                 : 2 h 48 min
  8. Overall bit rate                         : 9 308 kb/s
  9. Encoded date                             : UTC 2009-11-27 21:28:41
  10. Writing application                      : mkvmerge v2.9.8 ('C'est le bon') built on Aug 13 2009 12:49:06
  11. Writing library                          : libebml v0.7.7 + libmatroska v0.8.1
  12.  
  13. Video
  14. ID                                       : 1
  15. Format                                   : AVC
  16. Format/Info                              : Advanced Video Codec
  17. Format profile                           : High@L4.1
  18. Format settings                          : CABAC / 5 Ref Frames
  19. Format settings, CABAC                   : Yes
  20. Format settings, Reference frames        : 5 frames
  21. Codec ID                                 : V_MPEG4/ISO/AVC
  22. Duration                                 : 2 h 48 min
  23. Bit rate                                 : 8 667 kb/s
  24. Width                                    : 1 920 pixels
  25. Height                                   : 824 pixels
  26. Display aspect ratio                     : 2.35:1
  27. Frame rate mode                          : Constant
  28. Frame rate                               : 24.000 FPS
  29. Color space                              : YUV
  30. Chroma subsampling                       : 4:2:0
  31. Bit depth                                : 8 bits
  32. Scan type                                : Progressive
  33. Bits/(Pixel*Frame)                       : 0.228
  34. Stream size                              : 9.96 GiB (91%)
  35. Writing library                          : x264 core 79 r1342 e8501ef
  36. Encoding settings                        : cabac=1 / ref=5 / deblock=1:0:0 / analyse=0x3:0x133 / me=umh / subme=7 / psy=1 / psy_rd=1.0:0.0 / mixed_ref=1 / me_range=16 / chroma_me=1 / trellis=1 / 8x8dct=1 / cqm=0 / deadzone=21,11 / chroma_qp_offset=-2 / threads=6 / nr=0 / decimate=1 / mbaff=0 / constrained_intra=0 / bframes=3 / b_pyramid=0 / b_adapt=1 / b_bias=0 / direct=1 / wpredb=1 / wpredp=2 / keyint=250 / keyint_min=25 / scenecut=40 / rc_lookahead=40 / rc=2pass / mbtree=1 / bitrate=8667 / ratetol=1.0 / qcomp=0.60 / qpmin=10 / qpmax=51 / qpstep=4 / cplxblur=20.0 / qblur=0.5 / ip_ratio=1.40 / aq=1:1.00
  37. Language                                 : English
  38. Default                                  : Yes
  39. Forced                                   : No
  40.  
  41. Audio
  42. ID                                       : 2
  43. Format                                   : AC-3
  44. Format/Info                              : Audio Coding 3
  45. Commercial name                          : Dolby Digital
  46. Codec ID                                 : A_AC3
  47. Duration                                 : 2 h 48 min
  48. Bit rate mode                            : Constant
  49. Bit rate                                 : 640 kb/s
  50. Channel(s)                               : 2 channels
  51. Channel layout                           : L R
  52. Sampling rate                            : 48.0 kHz
  53. Frame rate                               : 31.250 FPS (1536 SPF)
  54. Bit depth                                : 16 bits
  55. Compression mode                         : Lossy
  56. Stream size                              : 770 MiB (7%)
  57. Language                                 : English
  58. Service kind                             : Complete Main
  59. Default                                  : Yes
  60. Forced                                   : No
  61.  
  62. Text
  63. ID                                       : 3
  64. Format                                   : UTF-8
  65. Codec ID                                 : S_TEXT/UTF8
  66. Codec ID/Info                            : UTF-8 Plain Text
  67. Language                                 : English
  68. Default                                  : No
  69. Forced                                   : No
RAW Paste Data