SHARE
TWEET

Untitled

mft39anton Feb 23rd, 2013 35 Never
Not a member of Pastebin yet? Sign Up, it unlocks many cool features!
  1. Disc Title:     DISC_13
  2. Disc Size:      15 955 648 676 bytes
  3. Protection:     AACS
  4. BD-Java:        No
  5. BDInfo:         0.5.8
  6.  
  7. Notes:          
  8.  
  9. BDINFO HOME:
  10.   Cinema Squid
  11.     http://www.cinemasquid.com/blu-ray/tools/bdinfo
  12.  
  13. INCLUDES FORUMS REPORT FOR:
  14.   AVS Forum Blu-ray Audio and Video Specifications Thread
  15.     http://www.avsforum.com/avs-vb/showthread.php?t=1155731
  16.  
  17.  
  18. ********************
  19. PLAYLIST: 00002.MPLS
  20. ********************
  21.  
  22. <--- BEGIN FORUMS PASTE --->
  23. [code]
  24.                                                                                                                 Total   Video                                            
  25. Title                                                           Codec   Length  Movie Size      Disc Size       Bitrate Bitrate Main Audio Track                          Secondary Audio Track
  26. -----                                                           ------  ------- --------------  --------------  ------- ------- ------------------                        ---------------------
  27. 00002.MPLS                                                      AVC     0:26:47 7 975 876 608   15 955 648 676  39,70   35,00   DTS-HD Master 5.1 2082Kbps (48kHz/16-bit)
  28. [/code]
  29.  
  30. [code]
  31.  
  32. DISC INFO:
  33.  
  34. Disc Title:     DISC_13
  35. Disc Size:      15 955 648 676 bytes
  36. Protection:     AACS
  37. BD-Java:        No
  38. BDInfo:         0.5.8
  39.  
  40. PLAYLIST REPORT:
  41.  
  42. Name:                   00002.MPLS
  43. Length:                 0:26:47.272 (h:m:s.ms)
  44. Size:                   7 975 876 608 bytes
  45. Total Bitrate:          39,70 Mbps
  46.  
  47. VIDEO:
  48.  
  49. Codec                   Bitrate             Description    
  50. -----                   -------             -----------    
  51. MPEG-4 AVC Video        34999 kbps          1080i / 29,970 fps / 16:9 / High Profile 4.1
  52.  
  53. AUDIO:
  54.  
  55. Codec                           Language        Bitrate         Description    
  56. -----                           --------        -------         -----------    
  57. DTS-HD Master Audio             English         2082 kbps       5.1 / 48 kHz / 2082 kbps / 16-bit (DTS Core: 5.1 / 48 kHz / 1509 kbps / 16-bit)
  58. Dolby Digital Audio             English         384 kbps        2.0 / 48 kHz / 384 kbps / DN -4dB
  59.  
  60. SUBTITLES:
  61.  
  62. Codec                           Language        Bitrate         Description    
  63. -----                           --------        -------         -----------    
  64. Presentation Graphics           Chinese         67,689 kbps                    
  65. Presentation Graphics           Chinese         65,625 kbps                    
  66. Presentation Graphics           Chinese         105,924 kbps                    
  67.  
  68. FILES:
  69.  
  70. Name            Time In         Length          Size            Total Bitrate  
  71. ----            -------         ------          ----            -------------  
  72. 00002.M2TS      0:00:00.000     0:26:47.272     7 975 876 608   39 699          
  73.  
  74. CHAPTERS:
  75.  
  76. Number          Time In         Length          Avg Video Rate  Max 1-Sec Rate  Max 1-Sec Time  Max 5-Sec Rate  Max 5-Sec Time  Max 10Sec Rate  Max 10Sec Time  Avg Frame Size  Max Frame Size  Max Frame Time  
  77. ------          -------         ------          --------------  --------------  --------------  --------------  --------------  --------------  --------------  --------------  --------------  --------------  
  78. 1               0:00:00.000     0:07:53.072     35 020 kbps     42 592 kbps     00:00:03.236    38 136 kbps     00:00:31.531    36 472 kbps     00:03:21.134    146 054 bytes   611 488 bytes   00:03:23.136    
  79. 2               0:07:53.072     0:06:33.359     34 988 kbps     42 842 kbps     00:11:18.477    37 987 kbps     00:11:44.537    36 489 kbps     00:11:44.370    145 930 bytes   504 895 bytes   00:11:45.237    
  80. 3               0:14:26.432     0:05:00.466     34 985 kbps     42 712 kbps     00:17:22.374    38 013 kbps     00:17:18.370    36 191 kbps     00:17:14.933    145 916 bytes   563 265 bytes   00:17:06.792    
  81. 4               0:19:26.899     0:07:20.373     34 994 kbps     44 075 kbps     00:24:44.149    38 492 kbps     00:24:40.745    36 656 kbps     00:24:41.346    145 964 bytes   544 755 bytes   00:23:17.095    
  82.  
  83. STREAM DIAGNOSTICS:
  84.  
  85. File            PID             Type            Codec           Language                Seconds                 Bitrate                 Bytes           Packets        
  86. ----            ---             ----            -----           --------                --------------          --------------          -------------   -----          
  87. 00002.M2TS      4113 (0x1011)   0x1B            AVC                                     1607,206                35 000                  7 031 531 488   38 242 969      
  88. 00002.M2TS      4352 (0x1100)   0x86            DTS-HD MA       eng (English)           1607,206                2 082                   418 211 100     2 524 042      
  89. 00002.M2TS      4353 (0x1101)   0x81            AC3             eng (English)           1607,206                384                     77 147 136      452 034        
  90. 00002.M2TS      4608 (0x1200)   0x90            PGS             zho (Chinese)           1607,206                68                      13 599 320      76 080          
  91. 00002.M2TS      4609 (0x1201)   0x90            PGS             zho (Chinese)           1607,206                66                      13 184 624      73 822          
  92. 00002.M2TS      4610 (0x1202)   0x90            PGS             zho (Chinese)           1607,206                106                     21 281 113      118 202        
  93.  
  94. [/code]
  95. <---- END FORUMS PASTE ---->
  96.  
  97.  
  98. ********************
  99. PLAYLIST: 00005.MPLS
  100. ********************
  101.  
  102. <--- BEGIN FORUMS PASTE --->
  103. [code]
  104.                                                                                                                 Total   Video                                            
  105. Title                                                           Codec   Length  Movie Size      Disc Size       Bitrate Bitrate Main Audio Track                          Secondary Audio Track
  106. -----                                                           ------  ------- --------------  --------------  ------- ------- ------------------                        ---------------------
  107. 00005.MPLS                                                      AVC     0:25:43 7 661 015 040   15 955 648 676  39,71   35,00   DTS-HD Master 5.1 2233Kbps (48kHz/16-bit)
  108. [/code]
  109.  
  110. [code]
  111.  
  112. DISC INFO:
  113.  
  114. Disc Title:     DISC_13
  115. Disc Size:      15 955 648 676 bytes
  116. Protection:     AACS
  117. BD-Java:        No
  118. BDInfo:         0.5.8
  119.  
  120. PLAYLIST REPORT:
  121.  
  122. Name:                   00005.MPLS
  123. Length:                 0:25:43.208 (h:m:s.ms)
  124. Size:                   7 661 015 040 bytes
  125. Total Bitrate:          39,71 Mbps
  126.  
  127. VIDEO:
  128.  
  129. Codec                   Bitrate             Description    
  130. -----                   -------             -----------    
  131. MPEG-4 AVC Video        34999 kbps          1080i / 29,970 fps / 16:9 / High Profile 4.1
  132.  
  133. AUDIO:
  134.  
  135. Codec                           Language        Bitrate         Description    
  136. -----                           --------        -------         -----------    
  137. DTS-HD Master Audio             English         2233 kbps       5.1 / 48 kHz / 2233 kbps / 16-bit (DTS Core: 5.1 / 48 kHz / 1509 kbps / 16-bit)
  138. Dolby Digital Audio             English         384 kbps        2.0 / 48 kHz / 384 kbps / DN -4dB
  139.  
  140. SUBTITLES:
  141.  
  142. Codec                           Language        Bitrate         Description    
  143. -----                           --------        -------         -----------    
  144. Presentation Graphics           English         36,274 kbps                    
  145. Presentation Graphics           Chinese         34,191 kbps                    
  146. Presentation Graphics           Chinese         34,833 kbps                    
  147.  
  148. FILES:
  149.  
  150. Name            Time In         Length          Size            Total Bitrate  
  151. ----            -------         ------          ----            -------------  
  152. 00007.M2TS      0:00:00.000     0:25:43.208     7 661 015 040   39 715          
  153.  
  154. CHAPTERS:
  155.  
  156. Number          Time In         Length          Avg Video Rate  Max 1-Sec Rate  Max 1-Sec Time  Max 5-Sec Rate  Max 5-Sec Time  Max 10Sec Rate  Max 10Sec Time  Avg Frame Size  Max Frame Size  Max Frame Time  
  157. ------          -------         ------          --------------  --------------  --------------  --------------  --------------  --------------  --------------  --------------  --------------  --------------  
  158. 1               0:00:00.000     0:06:41.000     35 010 kbps     46 197 kbps     00:01:35.762    38 516 kbps     00:00:00.767    36 178 kbps     00:01:11.938    146 010 bytes   536 554 bytes   00:00:00.867    
  159. 2               0:06:41.000     0:05:45.311     35 006 kbps     43 570 kbps     00:06:58.618    37 913 kbps     00:06:56.416    36 628 kbps     00:06:42.335    146 006 bytes   595 447 bytes   00:11:28.954    
  160. 3               0:12:26.312     0:06:51.410     35 003 kbps     42 600 kbps     00:14:28.734    37 543 kbps     00:13:06.585    36 628 kbps     00:13:03.816    145 991 bytes   572 481 bytes   00:17:12.564    
  161. 4               0:19:17.723     0:06:25.485     34 978 kbps     45 532 kbps     00:23:19.097    38 420 kbps     00:24:20.458    36 492 kbps     00:24:15.454    145 900 bytes   651 104 bytes   00:23:09.187    
  162.  
  163. STREAM DIAGNOSTICS:
  164.  
  165. File            PID             Type            Codec           Language                Seconds                 Bitrate                 Bytes           Packets        
  166. ----            ---             ----            -----           --------                --------------          --------------          -------------   -----          
  167. 00007.M2TS      4113 (0x1011)   0x1B            AVC                                     1543,108                35 002                  6 751 400 660   36 719 681      
  168. 00007.M2TS      4352 (0x1100)   0x86            DTS-HD MA       eng (English)           1543,108                2 233                   430 805 928     2 581 556      
  169. 00007.M2TS      4353 (0x1101)   0x81            AC3             eng (English)           1543,108                384                     74 128 896      434 349        
  170. 00007.M2TS      4608 (0x1200)   0x90            PGS             zho (Chinese)           1543,108                34                      6 595 442       36 942          
  171. 00007.M2TS      4609 (0x1201)   0x90            PGS             zho (Chinese)           1543,108                35                      6 719 335       37 619          
  172. 00007.M2TS      4610 (0x1202)   0x90            PGS             eng (English)           1543,108                36                      6 997 285       39 190          
  173.  
  174. [/code]
  175. <---- END FORUMS PASTE ---->
  176.  
  177.  
  178. ********************
  179. PLAYLIST: 00003.MPLS
  180. ********************
  181.  
  182. <--- BEGIN FORUMS PASTE --->
  183. [code]
  184.                                                                                                                 Total   Video                                            
  185. Title                                                           Codec   Length  Movie Size      Disc Size       Bitrate Bitrate Main Audio Track                          Secondary Audio Track
  186. -----                                                           ------  ------- --------------  --------------  ------- ------- ------------------                        ---------------------
  187. 00003.MPLS                                                      MPEG-2  0:00:49 218 044 416     15 955 648 676  35,32   32,00   LPCM 2.0 1536Kbps (48kHz/16-bit)          
  188. [/code]
  189.  
  190. [code]
  191.  
  192. DISC INFO:
  193.  
  194. Disc Title:     DISC_13
  195. Disc Size:      15 955 648 676 bytes
  196. Protection:     AACS
  197. BD-Java:        No
  198. BDInfo:         0.5.8
  199.  
  200. PLAYLIST REPORT:
  201.  
  202. Name:                   00003.MPLS
  203. Length:                 0:00:49.382 (h:m:s.ms)
  204. Size:                   218 044 416 bytes
  205. Total Bitrate:          35,32 Mbps
  206.  
  207. VIDEO:
  208.  
  209. Codec                   Bitrate             Description    
  210. -----                   -------             -----------    
  211. MPEG-2 Video            32000 kbps          1080i / 29,970 fps / 16:9
  212.  
  213. AUDIO:
  214.  
  215. Codec                           Language        Bitrate         Description    
  216. -----                           --------        -------         -----------    
  217. LPCM Audio                      English         1536 kbps       2.0 / 48 kHz / 1536 kbps / 16-bit
  218.  
  219. FILES:
  220.  
  221. Name            Time In         Length          Size            Total Bitrate  
  222. ----            -------         ------          ----            -------------  
  223. 00003.M2TS      0:00:00.000     0:00:49.382     218 044 416     35 323          
  224.  
  225. CHAPTERS:
  226.  
  227. Number          Time In         Length          Avg Video Rate  Max 1-Sec Rate  Max 1-Sec Time  Max 5-Sec Rate  Max 5-Sec Time  Max 10Sec Rate  Max 10Sec Time  Avg Frame Size  Max Frame Size  Max Frame Time  
  228. ------          -------         ------          --------------  --------------  --------------  --------------  --------------  --------------  --------------  --------------  --------------  --------------  
  229. 1               0:00:00.000     0:00:49.382     32 000 kbps     36 834 kbps     00:00:39.205    32 907 kbps     00:00:10.944    32 459 kbps     00:00:05.972    133 467 bytes   554 015 bytes   00:00:31.564    
  230.  
  231. STREAM DIAGNOSTICS:
  232.  
  233. File            PID             Type            Codec           Language                Seconds                 Bitrate                 Bytes           Packets        
  234. ----            ---             ----            -----           --------                --------------          --------------          -------------   -----          
  235. 00003.M2TS      4113 (0x1011)   0x02            MPEG-2                                  49,249                  32 087                  197 530 539     1 074 411      
  236. 00003.M2TS      4352 (0x1100)   0x80            LPCM            eng (English)           49,249                  1 554                   9 566 736       59 544          
  237.  
  238. [/code]
  239. <---- END FORUMS PASTE ---->
  240.  
  241.  
  242. ********************
  243. PLAYLIST: 00001.MPLS
  244. ********************
  245.  
  246. <--- BEGIN FORUMS PASTE --->
  247. [code]
  248.                                                                                                                 Total   Video                                            
  249. Title                                                           Codec   Length  Movie Size      Disc Size       Bitrate Bitrate Main Audio Track                          Secondary Audio Track
  250. -----                                                           ------  ------- --------------  --------------  ------- ------- ------------------                        ---------------------
  251. 00001.MPLS                                                      AVC     0:00:09 45 213 696      15 955 648 676  36,26   29,76   LPCM 5.1 4608Kbps (48kHz/16-bit)          
  252. [/code]
  253.  
  254. [code]
  255.  
  256. DISC INFO:
  257.  
  258. Disc Title:     DISC_13
  259. Disc Size:      15 955 648 676 bytes
  260. Protection:     AACS
  261. BD-Java:        No
  262. BDInfo:         0.5.8
  263.  
  264. PLAYLIST REPORT:
  265.  
  266. Name:                   00001.MPLS
  267. Length:                 0:00:09.976 (h:m:s.ms)
  268. Size:                   45 213 696 bytes
  269. Total Bitrate:          36,26 Mbps
  270.  
  271. VIDEO:
  272.  
  273. Codec                   Bitrate             Description    
  274. -----                   -------             -----------    
  275. MPEG-4 AVC Video        29760 kbps          1080i / 29,970 fps / 16:9 / High Profile 4.1
  276.  
  277. AUDIO:
  278.  
  279. Codec                           Language        Bitrate         Description    
  280. -----                           --------        -------         -----------    
  281. LPCM Audio                      Chinese         4608 kbps       5.1 / 48 kHz / 4608 kbps / 16-bit
  282.  
  283. FILES:
  284.  
  285. Name            Time In         Length          Size            Total Bitrate  
  286. ----            -------         ------          ----            -------------  
  287. 00001.M2TS      0:00:00.000     0:00:09.976     45 213 696      36 256          
  288.  
  289. CHAPTERS:
  290.  
  291. Number          Time In         Length          Avg Video Rate  Max 1-Sec Rate  Max 1-Sec Time  Max 5-Sec Rate  Max 5-Sec Time  Max 10Sec Rate  Max 10Sec Time  Avg Frame Size  Max Frame Size  Max Frame Time  
  292. ------          -------         ------          --------------  --------------  --------------  --------------  --------------  --------------  --------------  --------------  --------------  --------------  
  293. 1               0:00:00.000     0:00:09.976     29 760 kbps     50 980 kbps     00:00:00.667    32 317 kbps     00:00:00.667    0 kbps          00:00:00.000    124 122 bytes   364 560 bytes   00:00:01.101    
  294.  
  295. STREAM DIAGNOSTICS:
  296.  
  297. File            PID             Type            Codec           Language                Seconds                 Bitrate                 Bytes           Packets        
  298. ----            ---             ----            -----           --------                --------------          --------------          -------------   -----          
  299. 00001.M2TS      4113 (0x1011)   0x1B            AVC                                     9,910                   29 960                  37 112 572      202 094        
  300. 00001.M2TS      4352 (0x1100)   0x80            LPCM            zho (Chinese)           9,910                   4 805                   5 952 576       33 024          
  301.  
  302. [/code]
  303. <---- END FORUMS PASTE ---->
  304.  
  305.  
  306. ********************
  307. PLAYLIST: 00000.MPLS
  308. ********************
  309.  
  310. <--- BEGIN FORUMS PASTE --->
  311. [code]
  312.                                                                                                                 Total   Video                                            
  313. Title                                                           Codec   Length  Movie Size      Disc Size       Bitrate Bitrate Main Audio Track                          Secondary Audio Track
  314. -----                                                           ------  ------- --------------  --------------  ------- ------- ------------------                        ---------------------
  315. 00000.MPLS                                                      MPEG-2  0:00:07 36 575 232      15 955 648 676  41,80   39,98                                            
  316. [/code]
  317.  
  318. [code]
  319.  
  320. DISC INFO:
  321.  
  322. Disc Title:     DISC_13
  323. Disc Size:      15 955 648 676 bytes
  324. Protection:     AACS
  325. BD-Java:        No
  326. BDInfo:         0.5.8
  327.  
  328. PLAYLIST REPORT:
  329.  
  330. Name:                   00000.MPLS
  331. Length:                 0:00:07.000 (h:m:s.ms)
  332. Size:                   36 575 232 bytes
  333. Total Bitrate:          41,80 Mbps
  334.  
  335. VIDEO:
  336.  
  337. Codec                   Bitrate             Description    
  338. -----                   -------             -----------    
  339. MPEG-2 Video            39976 kbps          1080p / 24 fps / 16:9
  340.  
  341. FILES:
  342.  
  343. Name            Time In         Length          Size            Total Bitrate  
  344. ----            -------         ------          ----            -------------  
  345. 00000.M2TS      0:00:00.000     0:00:07.000     36 575 232      41 800          
  346.  
  347. CHAPTERS:
  348.  
  349. Number          Time In         Length          Avg Video Rate  Max 1-Sec Rate  Max 1-Sec Time  Max 5-Sec Rate  Max 5-Sec Time  Max 10Sec Rate  Max 10Sec Time  Avg Frame Size  Max Frame Size  Max Frame Time  
  350. ------          -------         ------          --------------  --------------  --------------  --------------  --------------  --------------  --------------  --------------  --------------  --------------  
  351. 1               0:00:00.000     0:00:07.000     39 976 kbps     40 798 kbps     00:00:01.458    40 000 kbps     00:00:01.958    0 kbps          00:00:00.000    208 209 bytes   312 213 bytes   00:00:02.500    
  352.  
  353. STREAM DIAGNOSTICS:
  354.  
  355. File            PID             Type            Codec           Language                Seconds                 Bitrate                 Bytes           Packets        
  356. ----            ---             ----            -----           --------                --------------          --------------          -------------   -----          
  357. 00000.M2TS      4113 (0x1011)   0x02            MPEG-2                                  6,875                   40 703                  34 979 048      190 225        
  358.  
  359. [/code]
  360. <---- END FORUMS PASTE ---->
RAW Paste Data
We use cookies for various purposes including analytics. By continuing to use Pastebin, you agree to our use of cookies as described in the Cookies Policy. OK, I Understand
 
Top