SHARE
TWEET

Untitled

a guest Oct 21st, 2019 62 Never
Not a member of Pastebin yet? Sign Up, it unlocks many cool features!
  1. General
  2. Complete name                    : E:\trade\Jay-Z & Alicia Keys - Empire State Of Mind (Master Clean ProRes 480i NTSC) - 2009.mov
  3. Format                           : MPEG-4
  4. Format profile                   : QuickTime
  5. Codec ID                         : qt  
  6. File size                        : 1.13 GiB
  7. Duration                         : 5mn 11s
  8. Overall bit rate                 : 31.1 Mbps
  9. Writing application              : Lavf57.71.100
  10.  
  11. Video
  12. ID                               : 1
  13. Format                           : apch
  14. Codec ID                         : apch
  15. Duration                         : 5mn 11s
  16. Bit rate mode                    : Variable
  17. Bit rate                         : 28.8 Mbps
  18. Width                            : 720 pixels
  19. Height                           : 480 pixels
  20. Display aspect ratio             : 1.500
  21. Frame rate mode                  : Constant
  22. Frame rate                       : 29.970 fps
  23. Standard                         : NTSC
  24. Bits/(Pixel*Frame)               : 2.777
  25. Stream size                      : 1.04 GiB (93%)
  26.  
  27. Audio
  28. ID                               : 2
  29. Format                           : PCM
  30. Format settings, Endianness      : Big
  31. Format settings, Sign            : Unsigned
  32. Codec ID                         : in24
  33. Duration                         : 5mn 11s
  34. Bit rate mode                    : Constant
  35. Bit rate                         : 2 304 Kbps
  36. Channel(s)                       : 2 channels
  37. Sampling rate                    : 48.0 KHz
  38. Resolution                       : 16 bits
  39. Stream size                      : 85.5 MiB (7%)
RAW Paste Data
We use cookies for various purposes including analytics. By continuing to use Pastebin, you agree to our use of cookies as described in the Cookies Policy. OK, I Understand
 
Top