GrabHD

Untitled

Mar 2nd, 2020
304
Never
Not a member of Pastebin yet? Sign Up, it unlocks many cool features!
  1. Общее
  2. Уникальный идентификатор : 236757681169975073654110249351292801523 (0xB21DDEEAF8EE6849BFE5DC49209E51F3)
  3. Полное имя : G:Torrent2ListevNovyjVzglyadS01ListevNovyjVzglyadS01x01.mkv
  4. Формат : Matroska
  5. Версия формата : Version 4 / Version 2
  6. Размер файла : 1,89 Гбайт
  7. Продолжительность : 53 м. 31 с.
  8. Общий поток : 5063 Кбит/сек
  9. Дата кодирования : UTC 2020-03-02 18:44:47
  10. Программа кодирования : mkvmerge v9.5.0 ('Quiet Fire') 64bit
  11. Библиотека кодирования : libebml v1.3.4 + libmatroska v1.4.5
  12.  
  13. Видео
  14. Идентификатор : 1
  15. Формат : AVC
  16. Формат/Информация : Advanced Video Codec
  17. Профиль формата : High@L4
  18. Настройки формата : CABAC / 4 Ref Frames
  19. Параметр CABAC формата : Да
  20. Параметр RefFrames формата : 4 кадра
  21. Идентификатор кодека : V_MPEG4/ISO/AVC
  22. Продолжительность : 53 м. 31 с.
  23. Битрейт : 5000 Кбит/сек
  24. Ширина : 1920 пикселей
  25. Высота : 1080 пикселей
  26. Соотношение сторон : 16:9
  27. Режим частоты кадров : Постоянный
  28. Частота кадров : 25,000 кадров/сек
  29. Цветовое пространство : YUV
  30. Субдискретизация насыщенности : 4:2:0
  31. Битовая глубина : 8 бит
  32. Тип развёртки : Прогрессивная
  33. Бит/(Пиксели*Кадры) : 0.096
  34. Размер потока : 1,82 Гбайт (96%)
  35. Библиотека кодирования : x264 core 148 r2721 72d53ab
  36. Настройки программы : cabac=1 / ref=4 / deblock=1:0:0 / analyse=0x3:0x133 / me=umh / subme=10 / psy=1 / psy_rd=1.00:0.00 / mixed_ref=1 / me_range=24 / chroma_me=1 / trellis=2 / 8x8dct=1 / cqm=0 / deadzone=21,11 / fast_pskip=1 / chroma_qp_offset=-2 / threads=34 / lookahead_threads=5 / sliced_threads=0 / nr=0 / decimate=1 / interlaced=0 / bluray_compat=0 / constrained_intra=0 / bframes=8 / b_pyramid=2 / b_adapt=2 / b_bias=0 / direct=3 / weightb=1 / open_gop=0 / weightp=2 / keyint=100 / keyint_min=50 / scenecut=40 / intra_refresh=0 / rc_lookahead=60 / rc=2pass / mbtree=1 / bitrate=5000 / ratetol=1.0 / qcomp=0.60 / qpmin=0 / qpmax=69 / qpstep=4 / cplxblur=20.0 / qblur=0.5 / vbv_maxrate=5500 / vbv_bufsize=2500 / nal_hrd=none / filler=0 / ip_ratio=1.40 / aq=1:1.00
  37. Язык : Russian
  38. Default : Да
  39. Forced : Нет
  40.  
  41. Аудио
  42. Идентификатор : 2
  43. Формат : AC-3
  44. Формат/Информация : Audio Coding 3
  45. Параметр Endianness формата : Big
  46. Идентификатор кодека : A_AC3
  47. Продолжительность : 53 м. 31 с.
  48. Вид битрейта : Постоянный
  49. Битрейт : 192 Кбит/сек
  50. Каналы : 2 канала
  51. Расположение каналов : Front: L R
  52. Частота : 48,0 КГц
  53. Частота кадров : 31,250 кадров/сек (1536 SPF)
  54. Битовая глубина : 16 бит
  55. Метод сжатия : С потерями
  56. Размер потока : 73,5 Мбайт (4%)
  57. Заголовок : rus
  58. Язык : Russian
  59. Default : Да
  60. Forced : Нет
RAW Paste Data