SHARE
TWEET

output of ffserve

a guest Feb 7th, 2013 81 Never
Not a member of Pastebin yet? Sign Up, it unlocks many cool features!
  1. root@raspberrypi:/etc# ffserver -f /etc/ffserver.conf & ffmpeg -v debug -s 640x480 -f video4linux2 -i /dev/video0 -f alsa -i sysdefault:CARD=CinemaTM http://localhost:8093/webcam.ffm
  2. [4] 6983
  3. ffserver version 1.0.3 Copyright (c) 2000-2012 the FFmpeg developers
  4.   built on Jan 29 2013 18:26:25 with gcc 4.6 (Debian 4.6.3-14+rpi1)
  5.   configuration:
  6.   libavutil      51. 73.101 / 51. 73.101
  7.   libavcodec     54. 59.100 / 54. 59.100
  8.   libavformat    54. 29.104 / 54. 29.104
  9.   libavdevice    54.  2.101 / 54.  2.101
  10.   libavfilter     3. 17.100 /  3. 17.100
  11.   libswscale      2.  1.101 /  2.  1.101
  12.   libswresample   0. 15.100 /  0. 15.100
  13. bind(port 8093): Address already in use
  14. ffmpeg version 1.0.3 Copyright (c) 2000-2012 the FFmpeg developers
  15.   built on Jan 29 2013 18:26:25 with gcc 4.6 (Debian 4.6.3-14+rpi1)
  16.   configuration:
  17.   libavutil      51. 73.101 / 51. 73.101
  18.   libavcodec     54. 59.100 / 54. 59.100
  19.   libavformat    54. 29.104 / 54. 29.104
  20.   libavdevice    54.  2.101 / 54.  2.101
  21.   libavfilter     3. 17.100 /  3. 17.100
  22.   libswscale      2.  1.101 /  2.  1.101
  23.   libswresample   0. 15.100 /  0. 15.100
  24. [video4linux2,v4l2 @ 0x21405b0] [3]Capabilities: 4000001
  25. [video4linux2,v4l2 @ 0x21405b0] The V4L2 driver set input_id: 0, input: Camera 1
  26. [video4linux2,v4l2 @ 0x21405b0] All info found
  27. [video4linux2,v4l2 @ 0x21405b0] Estimating duration from bitrate, this may be inaccurate
  28. Input #0, video4linux2,v4l2, from '/dev/video0':
  29.   Duration: N/A, start: 446652.174239, bitrate: 147456 kb/s
  30.     Stream #0:0, 1, 1/1000000: Video: rawvideo (YUY2 / 0x32595559), yuyv422, 640x480, 1/30, 147456 kb/s, 30 tbr, 1000k tbn, 30 tbc
  31. [alsa @ 0x213a980] All info found
  32. [alsa @ 0x213a980] Estimating duration from bitrate, this may be inaccurate
  33. Guessed Channel Layout for  Input Stream #1.0 : stereo
  34. Input #1, alsa, from 'sysdefault:CARD=CinemaTM':
  35.   Duration: N/A, start: 1360269143.113486, bitrate: 1536 kb/s
  36.     Stream #1:0, 1, 1/1000000: Audio: pcm_s16le, 48000 Hz, stereo, s16, 1536 kb/s
  37. [ffm @ 0x2142450] Format ffm probed with size=2048 and score=101
  38. [AVIOContext @ 0x2147110] Statistics: 4096 bytes read, 0 seeks
  39. [buffer @ 0x213bce0] Setting entry with key 'video_size' to value '640x480'
  40. [buffer @ 0x213bce0] Setting entry with key 'pix_fmt' to value '1'
  41. [buffer @ 0x213bce0] Setting entry with key 'time_base' to value '1/1000000'
  42. [buffer @ 0x213bce0] Setting entry with key 'pixel_aspect' to value '0/1'
  43. [buffer @ 0x213bce0] Setting entry with key 'sws_param' to value 'flags=2'
  44. [buffer @ 0x213bce0] Setting entry with key 'frame_rate' to value '30/1'
  45. [graph 0 input from stream 0:0 @ 0x2165520] w:640 h:480 pixfmt:yuyv422 tb:1/1000000 fr:30/1 sar:0/1 sws_param:flags=2
  46. [scaler for output stream 0:0 @ 0x216d9c0] w:640 h:480 fmt:yuyv422 sar:0/1 -> w:640 h:480 fmt:yuvj422p sar:0/1 flags:0x4
  47. [mjpeg @ 0x21464c0] detected 1 logical cores
  48. [mjpeg @ 0x21464c0] intra_quant_bias = 96 inter_quant_bias = 0
  49. Output #0, ffm, to 'http://localhost:8093/webcam.ffm':
  50.   Metadata:
  51.     encoder         : Lavf54.29.104
  52.     Stream #0:0, 0, 1/1000000: Video: mjpeg, yuvj422p, 640x480, 1/30, q=1-10, 20000 kb/s, 1000k tbn, 30 tbc
  53. Stream mapping:
  54.   Stream #0:0 -> #0:0 (rawvideo -> mjpeg)
  55. Press [q] to stop, [?] for help
  56. *** 44 dup!
  57. *** 7 dup!7 fps=6.6 q=1.6 size=    3600kB time=00:00:01.56 bitrate=18824.2kbits/s dup=44 drop=0
  58. *** 19 dup! fps=7.3 q=1.6 size=    4388kB time=00:00:01.90 bitrate=18919.2kbits/s dup=51 drop=0
  59. *** drop!77 fps=8.4 q=1.6 size=    5964kB time=00:00:02.56 bitrate=19035.2kbits/s dup=70 drop=0
  60. *** drop!77 fps=6.3 q=1.6 size=    5964kB time=00:00:02.56 bitrate=19035.2kbits/s dup=70 drop=1
  61. *** 11 dup!
  62. frame=   89 fps=6.3 q=1.6 Lsize=    6920kB time=00:00:02.96 bitrate=19108.5kbits/s dup=81 drop=2
  63. video:6891kB audio:0kB subtitle:0 global headers:0kB muxing overhead 0.423400%
  64. Received signal 2: terminating.
  65. [4]+  Exit 1                  ffserver -f /etc/ffserver.conf
  66. root@raspberrypi:/etc#
RAW Paste Data
We use cookies for various purposes including analytics. By continuing to use Pastebin, you agree to our use of cookies as described in the Cookies Policy. OK, I Understand
Top