SHARE
TWEET

Untitled

mft39anton Oct 26th, 2018 79 Never
Not a member of Pastebin yet? Sign Up, it unlocks many cool features!
  1. General
  2. Unique ID                                : 322852880528139583032244221844963075921 (0xF2E333F962DFF61B8FA9E1D5314A2751)
  3. Complete name                            : F:\tmp\Le.Bureau.Des.Legendes.S04E01.FRENCH.720p.WEBRip.x264-BRiNK.mkv
  4. Format                                   : Matroska
  5. Format version                           : Version 4 / Version 2
  6. File size                                : 712 MiB
  7. Duration                                 : 50 min 25 s
  8. Overall bit rate                         : 1 974 kb/s
  9. Encoded date                             : UTC 2018-10-23 06:07:40
  10. Writing application                      : mkvmerge v28.0.0 ('Voice In My Head') 64-bit
  11. Writing library                          : libebml v1.3.6 + libmatroska v1.4.9
  12.  
  13. Video
  14. ID                                       : 1
  15. Format                                   : AVC
  16. Format/Info                              : Advanced Video Codec
  17. Format profile                           : High@L4.1
  18. Format settings                          : CABAC / 8 Ref Frames
  19. Format settings, CABAC                   : Yes
  20. Format settings, RefFrames               : 8 frames
  21. Codec ID                                 : V_MPEG4/ISO/AVC
  22. Duration                                 : 50 min 24 s
  23. Bit rate                                 : 1 588 kb/s
  24. Width                                    : 1 280 pixels
  25. Height                                   : 720 pixels
  26. Display aspect ratio                     : 16:9
  27. Frame rate mode                          : Constant
  28. Frame rate                               : 25.000 FPS
  29. Color space                              : YUV
  30. Chroma subsampling                       : 4:2:0
  31. Bit depth                                : 8 bits
  32. Scan type                                : Progressive
  33. Bits/(Pixel*Frame)                       : 0.069
  34. Stream size                              : 573 MiB (80%)
  35. Writing library                          : x264 core 157 r2935 545de2f
  36. Encoding settings                        : cabac=1 / ref=8 / deblock=1:-3:-3 / analyse=0x3:0x133 / me=umh / subme=11 / psy=1 / psy_rd=1.05:0.15 / mixed_ref=1 / me_range=48 / chroma_me=1 / trellis=2 / 8x8dct=1 / cqm=0 / deadzone=6,6 / fast_pskip=0 / chroma_qp_offset=-3 / threads=22 / lookahead_threads=5 / sliced_threads=0 / nr=0 / decimate=0 / interlaced=0 / bluray_compat=0 / constrained_intra=0 / bframes=10 / b_pyramid=2 / b_adapt=2 / b_bias=0 / direct=3 / weightb=1 / open_gop=0 / weightp=2 / keyint=250 / keyint_min=25 / scenecut=40 / intra_refresh=0 / rc_lookahead=60 / rc=crf / mbtree=1 / crf=18.0 / qcomp=0.70 / qpmin=0 / qpmax=69 / qpstep=4 / ip_ratio=1.10 / aq=3:0.70
  37. Default                                  : Yes
  38. Forced                                   : No
  39. Color range                              : Limited
  40. Color primaries                          : BT.2020
  41. Transfer characteristics                 : PQ
  42. Matrix coefficients                      : BT.2020 non-constant
  43.  
  44. Audio
  45. ID                                       : 2
  46. Format                                   : E-AC-3
  47. Format/Info                              : Enhanced Audio Coding 3
  48. Codec ID                                 : A_EAC3
  49. Duration                                 : 50 min 24 s
  50. Bit rate mode                            : Constant
  51. Bit rate                                 : 384 kb/s
  52. Channel(s)                               : 6 channels
  53. Channel positions                        : Front: L C R, Side: L R, LFE
  54. Sampling rate                            : 48.0 kHz
  55. Frame rate                               : 187.500 FPS (256 SPF)
  56. Compression mode                         : Lossy
  57. Delay relative to video                  : 1 s 100 ms
  58. Stream size                              : 138 MiB (19%)
  59. Title                                    : French
  60. Language                                 : French
  61. Service kind                             : Complete Main
  62. Default                                  : Yes
  63. Forced                                   : No
RAW Paste Data
We use cookies for various purposes including analytics. By continuing to use Pastebin, you agree to our use of cookies as described in the Cookies Policy. OK, I Understand
 
Top