SHARE
TWEET

Untitled

GrabHD Feb 22nd, 2020 91 Never
Not a member of Pastebin yet? Sign Up, it unlocks many cool features!
  1. General
  2. Unique ID : 136045059534681040903727681180708425207 (0x6659534D0BC694E33267D237E198CDF7)
  3. Complete name : Чорний ворон (2019) WEB-DL 1080p [UKR] [Hurtom].mkv
  4. Format : Matroska
  5. Format version : Version 4
  6. File size : 3.17 GiB
  7. Duration : 1 h 50 min
  8. Overall bit rate : 4 117 kb/s
  9. Movie name : Чорний ворон (2019)
  10. Encoded date : UTC 2020-02-22 17:38:37
  11. Writing application : mkvmerge v40.0.0 ('Old Town Road + Pony') 64-bit
  12. Writing library : libebml v1.3.9 + libmatroska v1.5.2
  13. Cover : Yes
  14. Attachments : cover.jpg
  15.  
  16. Video
  17. ID : 1
  18. Format : AVC
  19. Format/Info : Advanced Video Codec
  20. Format profile : High@L4
  21. Format settings : CABAC / 3 Ref Frames
  22. Format settings, CABAC : Yes
  23. Format settings, ReFrames : 3 frames
  24. Codec ID : V_MPEG4/ISO/AVC
  25. Duration : 1 h 50 min
  26. Bit rate : 3 922 kb/s
  27. Width : 1 920 pixels
  28. Height : 800 pixels
  29. Display aspect ratio : 2.40:1
  30. Frame rate mode : Constant
  31. Frame rate : 25.000 FPS
  32. Color space : YUV
  33. Chroma subsampling : 4:2:0
  34. Bit depth : 8 bits
  35. Scan type : Progressive
  36. Bits/(Pixel*Frame) : 0.102
  37. Stream size : 3.02 GiB (95%)
  38. Language : Ukrainian
  39. Default : Yes
  40. Forced : No
  41.  
  42. Audio
  43. ID : 2
  44. Format : AC-3
  45. Format/Info : Audio Coding 3
  46. Commercial name : Dolby Digital
  47. Codec ID : A_AC3
  48. Duration : 1 h 50 min
  49. Bit rate mode : Constant
  50. Bit rate : 192 kb/s
  51. Channel(s) : 2 channels
  52. Channel layout : L R
  53. Sampling rate : 48.0 kHz
  54. Frame rate : 31.250 FPS (1536 SPF)
  55. Bit depth : 16 bits
  56. Compression mode : Lossy
  57. Stream size : 151 MiB (5%)
  58. Title : AC3 2.0 @ 192 kbps
  59. Language : Ukrainian
  60. Service kind : Complete Main
  61. Default : Yes
  62. Forced : Yes
RAW Paste Data
We use cookies for various purposes including analytics. By continuing to use Pastebin, you agree to our use of cookies as described in the Cookies Policy. OK, I Understand
Top