bluecity

Knight Rider 1080p

Jan 29th, 2020
386
Never
Not a member of Pastebin yet? Sign Up, it unlocks many cool features!
  1. Format : Matroska
  2. Format version : Version 2
  3. File size : 1.56 GiB
  4. Duration : 1 h 36 min
  5. Overall bit rate : 2 326 kb/s
  6. Movie name : Knight.Rider.S01E01E02.BluRay.1080p.AC3.H265-d3g
  7. Encoded date : UTC 2018-08-08 17:57:51
  8. Writing application : DVDFab 10.2.0.7
  9. Writing library : libebml v1.3.4 + libmatroska v1.4.5
  10.  
  11. Video
  12. ID : 1
  13. Format : HEVC
  14. Format/Info : High Efficiency Video Coding
  15. Format profile : Main@L4@Main
  16. Codec ID : V_MPEGH/ISO/HEVC
  17. Duration : 1 h 36 min
  18. Bit rate : 1 876 kb/s
  19. Width : 1 456 pixels
  20. Height : 1 080 pixels
  21. Display aspect ratio : 4:3
  22. Frame rate mode : Constant
  23. Frame rate : 23.976 (24000/1001) FPS
  24. Color space : YUV
  25. Chroma subsampling : 4:2:0
  26. Bit depth : 8 bits
  27. Bits/(Pixel*Frame) : 0.050
  28. Stream size : 1.26 GiB (81%)
  29. Default : Yes
  30. Forced : No
  31. Color range : Limited
  32. Color primaries : BT.709
  33. Transfer characteristics : BT.709
  34. Matrix coefficients : BT.709
  35.  
  36. Audio
  37. ID : 2
  38. Format : AC-3
  39. Format/Info : Audio Coding 3
  40. Codec ID : A_AC3
  41. Duration : 1 h 36 min
  42. Bit rate mode : Constant
  43. Bit rate : 448 kb/s
  44. Channel(s) : 2 channels
  45. Channel positions : Front: L R
  46. Sampling rate : 48.0 kHz
  47. Frame rate : 31.250 FPS (1536 SPF)
  48. Bit depth : 16 bits
  49. Compression mode : Lossy
  50. Stream size : 308 MiB (19%)
  51. Language : English
  52. Service kind : Complete Main
  53. Default : Yes
  54. Forced : No
RAW Paste Data