Guest User

Untitled

a guest
Feb 2nd, 2020
90
Never
Not a member of Pastebin yet? Sign Up, it unlocks many cool features!
  1. Формат : AVI
  2. Формат/Информация : Audio Video Interleave
  3. Профиль формата : OpenDML
  4. Размер файла : 2,18 Гбайт
  5. Продолжительность : 2 ч. 0 м.
  6. Общий поток : 2592 Кбит/сек
  7. Название фильма : Матиас и Максим_2019_WEB-DLRip
  8. Программа кодирования : VirtualDubMod 1.5.10.3 | www.virtualdub-fr.org || (build 2550/release)
  9. Авторское право : порошков
  10.  
  11. Видео
  12. Идентификатор : 0
  13. Формат : MPEG-4 Visual
  14. Профиль формата : Advanced Simple@L5
  15. Настройки формата : BVOP1 / Custom Matrix
  16. Параметр BVOP формата : 1
  17. Параметр QPel формата : Нет
  18. Параметр GMC формата : Без точки перехода
  19. Параметр матрицы формата : Выборочная
  20. Идентификатор кодека : XVID
  21. Идентификатор кодека/Подсказка : XviD
  22. Продолжительность : 2 ч. 0 м.
  23. Битрейт : 1806 Кбит/сек
  24. Ширина : 704 пикселя
  25. Высота : 384 пикселя
  26. Соотношение сторон : 1,85:1
  27. Частота кадров : 24,000 кадра/сек
  28. Цветовое пространство : YUV
  29. Субдискретизация насыщенности : 4:2:0
  30. Битовая глубина : 8 бит
  31. Тип развёртки : Прогрессивная
  32. Метод сжатия : С потерями
  33. Бит/(Пиксели*Кадры) : 0.278
  34. Размер потока : 1,52 Гбайт (70%)
  35. Библиотека кодирования : XviD 73
  36.  
  37. Аудио #1
  38. Идентификатор : 1
  39. Формат : AC-3
  40. Формат/Информация : Audio Coding 3
  41. Коммерческое название : Dolby Digital
  42. Идентификатор кодека : 2000
  43. Продолжительность : 2 ч. 0 м.
  44. Вид битрейта : Постоянный
  45. Битрейт : 384 Кбит/сек
  46. Каналы : 6 каналов
  47. ChannelLayout : L R C LFE Ls Rs
  48. Частота : 48,0 КГц
  49. Частота кадров : 31,250 кадров/сек (1536 SPF)
  50. Метод сжатия : С потерями
  51. Размер потока : 330 Мбайт (15%)
  52. Выравнивание : Разделение по промежуткам
  53. Продолжительность промежутка : 42 мс. (1,00 видеокадр)
  54. Время предзагрузки промежутка : 500 мс.
  55. Заголовок : rus
  56. ServiceKind/String : Complete Main
  57.  
  58. Аудио #2
  59. Идентификатор : 2
  60. Формат : AC-3
  61. Формат/Информация : Audio Coding 3
  62. Коммерческое название : Dolby Digital
  63. Идентификатор кодека : 2000
  64. Продолжительность : 2 ч. 0 м.
  65. Вид битрейта : Постоянный
  66. Битрейт : 384 Кбит/сек
  67. Каналы : 6 каналов
  68. ChannelLayout : L R C LFE Ls Rs
  69. Частота : 48,0 КГц
  70. Частота кадров : 31,250 кадров/сек (1536 SPF)
  71. Метод сжатия : С потерями
  72. Размер потока : 330 Мбайт (15%)
  73. Выравнивание : Разделение по промежуткам
  74. Продолжительность промежутка : 42 мс. (1,00 видеокадр)
  75. Время предзагрузки промежутка : 500 мс.
  76. Заголовок : fra
  77. ServiceKind/String : Complete Main
RAW Paste Data

Adblocker detected! Please consider disabling it...

We've detected AdBlock Plus or some other adblocking software preventing Pastebin.com from fully loading.

We don't have any obnoxious sound, or popup ads, we actively block these annoying types of ads!

Please add Pastebin.com to your ad blocker whitelist or disable your adblocking software.

×