GrabHD

Untitled

Mar 16th, 2020
104
Never
Not a member of Pastebin yet? Sign Up, it unlocks many cool features!
  1. Общее
  2. Уникальный идентификатор : 174724606910510570558928279031517768452 (0x8372BC3926231B28B5E7EE97E0476B04)
  3. Полное имя : D:\Раздача\Ya,Ty,On,Ona.2018.WEB-DLRip-AVC.ExKinoRay.mkv
  4. Формат : Matroska
  5. Версия формата : Version 4 / Version 2
  6. Размер файла : 1,96 Гбайт
  7. Продолжительность : 1 ч. 35 м.
  8. Общий поток : 2951 Кбит/сек
  9. Название фильма : Я, Ти, Він, Вона (2018) WEB-DLRip-AVC.ExKinoRay & grab777
  10. Дата кодирования : UTC 2020-03-12 20:45:26
  11. Программа кодирования : mkvmerge v7.3.0 ('Nouages') 64bit built on Oct 22 2014 18:53:34
  12. Библиотека кодирования : libebml v1.3.0 + libmatroska v1.4.1
  13.  
  14. Видео
  15. Идентификатор : 1
  16. Формат : AVC
  17. Формат/Информация : Advanced Video Codec
  18. Профиль формата : High@L4.1
  19. Настройки формата : CABAC / 12 Ref Frames
  20. Параметр CABAC формата : Да
  21. Параметр RefFrames формата : 12 кадров
  22. Идентификатор кодека : V_MPEG4/ISO/AVC
  23. Продолжительность : 1 ч. 35 м.
  24. Битрейт : 2758 Кбит/сек
  25. Ширина : 1024 пикселя
  26. Высота : 432 пикселя
  27. Соотношение сторон : 2,40:1
  28. Соотношение сторон в оригинале : 2,40:1
  29. Режим частоты кадров : Постоянный
  30. Частота кадров : 25,000 кадров/сек
  31. Цветовое пространство : YUV
  32. Субдискретизация насыщенности : 4:2:0
  33. Битовая глубина : 8 бит
  34. Тип развёртки : Прогрессивная
  35. Бит/(Пиксели*Кадры) : 0.249
  36. Размер потока : 1,83 Гбайт (93%)
  37. Заголовок : Rip by grab777
  38. Библиотека кодирования : x264 core 148 r2665M a01e339
  39. Настройки программы : cabac=1 / ref=12 / deblock=1:-2:-2 / analyse=0x3:0x133 / me=umh / subme=10 / psy=1 / psy_rd=1.00:0.15 / mixed_ref=1 / me_range=32 / chroma_me=1 / trellis=2 / 8x8dct=1 / cqm=0 / deadzone=21,11 / fast_pskip=0 / chroma_qp_offset=-3 / threads=5 / lookahead_threads=1 / sliced_threads=0 / nr=0 / decimate=1 / interlaced=0 / bluray_compat=0 / constrained_intra=0 / bframes=10 / b_pyramid=2 / b_adapt=2 / b_bias=0 / direct=3 / weightb=1 / open_gop=0 / weightp=2 / keyint=250 / keyint_min=25 / scenecut=40 / intra_refresh=0 / rc_lookahead=40 / rc=crf / mbtree=1 / crf=15.8 / qcomp=0.90 / qpmin=3 / qpmax=69 / qpstep=4 / vbv_maxrate=40000 / vbv_bufsize=30000 / crf_max=31.0 / nal_hrd=none / filler=0 / ip_ratio=1.40 / aq=1:0.00
  40. Язык : Ukrainian
  41. Default : Да
  42. Forced : Нет
  43.  
  44. Аудио
  45. Идентификатор : 2
  46. Формат : AC-3
  47. Формат/Информация : Audio Coding 3
  48. Параметр Endianness формата : Big
  49. Идентификатор кодека : A_AC3
  50. Продолжительность : 1 ч. 35 м.
  51. Вид битрейта : Постоянный
  52. Битрейт : 192 Кбит/сек
  53. Каналы : 2 канала
  54. Расположение каналов : Front: L R
  55. Частота : 48,0 КГц
  56. Частота кадров : 31,250 кадров/сек (1536 SPF)
  57. Битовая глубина : 16 бит
  58. Метод сжатия : С потерями
  59. Размер потока : 130 Мбайт (7%)
  60. Заголовок : Origiyal
  61. Язык : Ukrainian
  62. ServiceKind/String : Complete Main
  63. Default : Да
  64. Forced : Да
  65.  
  66. Меню
  67. 00:00:00.000 : :Глава 1
  68. 00:13:51.000 : :Глава 2
  69. 00:26:06.000 : :Глава 3
  70. 00:38:06.000 : :Глава 4
  71. 00:50:55.572 : :Глава 5
  72. 01:04:35.999 : :Глава 6
  73. 01:15:42.000 : :Глава 7
  74. 01:27:45.000 : :Глава 8
RAW Paste Data