Guest User

Untitled

a guest
Jun 2nd, 2014
246
Never
Not a member of Pastebin yet? Sign Up, it unlocks many cool features!
  1. Общее
  2. Water.And.Fire.2013.Blu.Ray.1080p.CINEMANIA.mkv
  3. Формат : Matroska
  4. Версия формата : Version 4 / Version 2
  5. Размер файла : 11,4 Гбайт
  6. Продолжительность : 1 ч. 48 м.
  7. Режим общего битрейта : Переменный
  8. Общий поток : 15,0 Мбит/сек
  9. Название фильма : Release Group CINEMANIA
  10. Дата кодирования : UTC 2014-06-02 20:52:27
  11. Программа кодирования : mkvmerge v6.9.1 ('Blue Panther') 64bit built on Apr 18 2014 18:23:38
  12. Библиотека кодирования : libebml v1.3.0 + libmatroska v1.4.1
  13.  
  14. Видео
  15. Идентификатор : 1
  16. Формат : AVC
  17. Формат/Информация : Advanced Video Codec
  18. Профиль формата : High@L4.0
  19. Параметр CABAC формата : Да
  20. Параметр ReFrames формата : 4 кадра
  21. Идентификатор кодека : V_MPEG4/ISO/AVC
  22. Продолжительность : 1 ч. 48 м.
  23. Номинальный битрейт : 10,3 Мбит/сек
  24. Ширина : 1920 пикселей
  25. Высота : 816 пикселей
  26. Соотношение сторон : 2,35:1
  27. Режим частоты кадров : Постоянный
  28. Частота кадров : 25,000 кадров/сек
  29. Цветовое пространство : YUV
  30. Субдискретизация насыщенности : 4:2:0
  31. Битовая глубина : 8 бит
  32. Тип развёртки : Прогрессивная
  33. Бит/(Пиксели*Кадры) : 0.263
  34. Заголовок : Release Group CINEMANIA
  35. Библиотека кодирования : x264 core 142 r2431 ac76440
  36. Настройки программы : cabac=1 / ref=3 / deblock=1:0:0 / analyse=0x3:0x113 / me=hex / subme=7 / psy=1 / psy_rd=1.00:0.00 / mixed_ref=1 / me_range=16 / chroma_me=1 / trellis=1 / 8x8dct=1 / cqm=0 / deadzone=21,11 / fast_pskip=1 / chroma_qp_offset=-2 / threads=12 / lookahead_threads=2 / sliced_threads=0 / nr=0 / decimate=1 / interlaced=0 / bluray_compat=0 / constrained_intra=0 / bframes=3 / b_pyramid=2 / b_adapt=1 / b_bias=0 / direct=1 / weightb=1 / open_gop=0 / weightp=2 / keyint=250 / keyint_min=25 / scenecut=40 / intra_refresh=0 / rc_lookahead=40 / rc=2pass / mbtree=1 / bitrate=10317 / ratetol=1.0 / qcomp=0.60 / qpmin=0 / qpmax=69 / qpstep=4 / cplxblur=20.0 / qblur=0.5 / ip_ratio=1.40 / aq=1:1.00
  37. Язык : Turkish
  38. Default : Да
  39. Forced : Нет
  40.  
  41. Аудио #1
  42. Идентификатор : 2
  43. Формат : AC-3
  44. Формат/Информация : Audio Coding 3
  45. Расширение режима : CM (complete main)
  46. Параметр Endianness формата : Big
  47. Идентификатор кодека : A_AC3
  48. Продолжительность : 1 ч. 48 м.
  49. Вид битрейта : Постоянный
  50. Битрейт : 192 Кбит/сек
  51. Каналы : 2 канала
  52. Расположение каналов : Front: L R
  53. Частота : 48,0 КГц
  54. Битовая глубина : 16 бит
  55. Метод сжатия : С потерями
  56. Размер потока : 150 Мбайт (1%)
  57. Заголовок : shachter58
  58. Язык : Russian
  59. Default : Да
  60. Forced : Да
  61.  
  62. Аудио #2
  63. Идентификатор : 3
  64. Формат : DTS
  65. Формат/Информация : Digital Theater Systems
  66. Параметр Endianness формата : Big
  67. Идентификатор кодека : A_DTS
  68. Продолжительность : 1 ч. 48 м.
  69. Вид битрейта : Переменный
  70. Битрейт : Неизвестно / 1509 Кбит/сек
  71. Каналы : 6 каналов
  72. Расположение каналов : Front: L C R, Side: L R, LFE
  73. Частота : 48,0 КГц
  74. Битовая глубина : 24 бит
  75. Метод сжатия : Без потерь / Lossy
  76. Язык : Turkish
  77. Default : Нет
  78. Forced : Нет
  79.  
  80. Аудио #3
  81. Идентификатор : 4
  82. Формат : AC-3
  83. Формат/Информация : Audio Coding 3
  84. Расширение режима : CM (complete main)
  85. Параметр Endianness формата : Big
  86. Идентификатор кодека : A_AC3
  87. Продолжительность : 1 ч. 48 м.
  88. Вид битрейта : Постоянный
  89. Битрейт : 640 Кбит/сек
  90. Каналы : 6 каналов
  91. Расположение каналов : Front: L C R, Side: L R, LFE
  92. Частота : 48,0 КГц
  93. Битовая глубина : 16 бит
  94. Метод сжатия : С потерями
  95. Размер потока : 498 Мбайт (4%)
  96. Язык : Turkish
  97. Default : Нет
  98. Forced : Нет
  99.  
  100. Текст
  101. Идентификатор : 5
  102. Формат : UTF-8
  103. Идентификатор кодека : S_TEXT/UTF8
  104. Идентификатор кодека/Информация : UTF-8 Plain Text
  105. Язык : English
  106. Default : Нет
  107. Forced : Нет
RAW Paste Data

Adblocker detected! Please consider disabling it...

We've detected AdBlock Plus or some other adblocking software preventing Pastebin.com from fully loading.

We don't have any obnoxious sound, or popup ads, we actively block these annoying types of ads!

Please add Pastebin.com to your ad blocker whitelist or disable your adblocking software.

×