SHARE
TWEET

El.Mariachi.1992.1080p.BluRay.REMUX.AVC.DTS-HD.MA.2.0-EPSiLON

a guest Jun 12th, 2019 34 Never
Not a member of Pastebin yet? Sign Up, it unlocks many cool features!
  1. General
  2. Unique ID                                : 182433120082465634870362755730171934087 (0x893F5744023DFA819536ED3A1C3AB587)
  3. Complete name                            : El.Mariachi.1992.1080p.BluRay.REMUX.AVC.DTS-HD.MA.2.0-EPSiLON.mkv
  4. Format                                   : Matroska
  5. Format version                           : Version 4
  6. File size                                : 14.2 GiB
  7. Duration                                 : 1 h 21 min
  8. Overall bit rate mode                    : Variable
  9. Overall bit rate                         : 24.9 Mb/s
  10. Movie name                               : El.Mariachi.1992.1080p.BluRay.REMUX.AVC.DTS-HD.MA.2.0-EPSiLON
  11. Encoded date                             : UTC 2017-07-17 18:25:36
  12. Writing application                      : mkvmerge v13.0.0 ('The Juggler') 64bit
  13. Writing library                          : libebml v1.3.4 + libmatroska v1.4.5
  14.  
  15. Video
  16. ID                                       : 1
  17. Format                                   : AVC
  18. Format/Info                              : Advanced Video Codec
  19. Format profile                           : High@L4.1
  20. Format settings                          : CABAC / 4 Ref Frames
  21. Format settings, CABAC                   : Yes
  22. Format settings, Reference frames        : 4 frames
  23. Codec ID                                 : V_MPEG4/ISO/AVC
  24. Duration                                 : 1 h 21 min
  25. Bit rate mode                            : Variable
  26. Bit rate                                 : 23.0 Mb/s
  27. Maximum bit rate                         : 36.0 Mb/s
  28. Width                                    : 1 920 pixels
  29. Height                                   : 1 080 pixels
  30. Display aspect ratio                     : 16:9
  31. Frame rate mode                          : Constant
  32. Frame rate                               : 23.976 (24000/1001) FPS
  33. Color space                              : YUV
  34. Chroma subsampling                       : 4:2:0
  35. Bit depth                                : 8 bits
  36. Scan type                                : Progressive
  37. Bits/(Pixel*Frame)                       : 0.462
  38. Stream size                              : 13.1 GiB (92%)
  39. Title                                    : MPEG-4 AVC Video / 22998 kbps / 1080p / 23.976 fps / 16:9 / High Profile 4.1
  40. Language                                 : English
  41. Default                                  : Yes
  42. Forced                                   : No
  43. Color range                              : Limited
  44. Color primaries                          : BT.709
  45. Transfer characteristics                 : BT.709
  46. Matrix coefficients                      : BT.709
  47.  
  48. Audio #1
  49. ID                                       : 2
  50. Format                                   : DTS XLL
  51. Format/Info                              : Digital Theater Systems
  52. Commercial name                          : DTS-HD Master Audio
  53. Codec ID                                 : A_DTS
  54. Duration                                 : 1 h 21 min
  55. Bit rate mode                            : Variable
  56. Bit rate                                 : 1 602 kb/s
  57. Channel(s)                               : 2 channels
  58. Channel layout                           : L R
  59. Sampling rate                            : 48.0 kHz
  60. Frame rate                               : 93.750 FPS (512 SPF)
  61. Bit depth                                : 16 bits
  62. Compression mode                         : Lossless
  63. Stream size                              : 934 MiB (6%)
  64. Title                                    : DTS-HD Master Audio / 2.0 / 48 kHz / 1602 kbps / 16-bit
  65. Language                                 : English
  66. Default                                  : Yes
  67. Forced                                   : No
  68.  
  69. Audio #2
  70. ID                                       : 3
  71. Format                                   : AC-3
  72. Format/Info                              : Audio Coding 3
  73. Commercial name                          : Dolby Digital
  74. Codec ID                                 : A_AC3
  75. Duration                                 : 1 h 21 min
  76. Bit rate mode                            : Constant
  77. Bit rate                                 : 192 kb/s
  78. Channel(s)                               : 2 channels
  79. Channel layout                           : L R
  80. Sampling rate                            : 48.0 kHz
  81. Frame rate                               : 31.250 FPS (1536 SPF)
  82. Bit depth                                : 16 bits
  83. Compression mode                         : Lossy
  84. Stream size                              : 112 MiB (1%)
  85. Title                                    : Commentary by Director Robert Rodriguez (Dolby Digital Audio / 2.0 / 48 kHz / 192 kbps)
  86. Language                                 : English
  87. Service kind                             : Complete Main
  88. Default                                  : No
  89. Forced                                   : No
  90.  
  91. Text #1
  92. ID                                       : 4
  93. Format                                   : PGS
  94. Codec ID                                 : S_HDMV/PGS
  95. Codec ID/Info                            : Picture based subtitle format used on BDs/HD-DVDs
  96. Duration                                 : 1 h 8 min
  97. Bit rate                                 : 381 b/s
  98. Count of elements                        : 22
  99. Stream size                              : 191 KiB (0%)
  100. Title                                    : Forced for Foreign Parts
  101. Language                                 : English
  102. Default                                  : Yes
  103. Forced                                   : No
  104.  
  105. Text #2
  106. ID                                       : 5
  107. Format                                   : PGS
  108. Codec ID                                 : S_HDMV/PGS
  109. Codec ID/Info                            : Picture based subtitle format used on BDs/HD-DVDs
  110. Duration                                 : 1 h 15 min
  111. Bit rate                                 : 13.2 kb/s
  112. Count of elements                        : 940
  113. Stream size                              : 7.14 MiB (0%)
  114. Language                                 : English
  115. Default                                  : No
  116. Forced                                   : No
  117.  
  118. Text #3
  119. ID                                       : 6
  120. Format                                   : PGS
  121. Codec ID                                 : S_HDMV/PGS
  122. Codec ID/Info                            : Picture based subtitle format used on BDs/HD-DVDs
  123. Duration                                 : 1 h 18 min
  124. Bit rate                                 : 10.1 kb/s
  125. Count of elements                        : 1156
  126. Stream size                              : 5.62 MiB (0%)
  127. Title                                    : SDH
  128. Language                                 : English
  129. Default                                  : No
  130. Forced                                   : No
  131.  
  132. Text #4
  133. ID                                       : 7
  134. Format                                   : PGS
  135. Codec ID                                 : S_HDMV/PGS
  136. Codec ID/Info                            : Picture based subtitle format used on BDs/HD-DVDs
  137. Duration                                 : 1 h 21 min
  138. Bit rate                                 : 11.4 kb/s
  139. Count of elements                        : 954
  140. Stream size                              : 6.62 MiB (0%)
  141. Language                                 : French
  142. Default                                  : No
  143. Forced                                   : No
  144.  
  145. Text #5
  146. ID                                       : 8
  147. Format                                   : PGS
  148. Codec ID                                 : S_HDMV/PGS
  149. Codec ID/Info                            : Picture based subtitle format used on BDs/HD-DVDs
  150. Duration                                 : 1 h 15 min
  151. Bit rate                                 : 13.5 kb/s
  152. Count of elements                        : 924
  153. Stream size                              : 7.33 MiB (0%)
  154. Language                                 : Spanish
  155. Default                                  : No
  156. Forced                                   : No
  157.  
  158. Text #6
  159. ID                                       : 9
  160. Format                                   : PGS
  161. Codec ID                                 : S_HDMV/PGS
  162. Codec ID/Info                            : Picture based subtitle format used on BDs/HD-DVDs
  163. Duration                                 : 1 h 21 min
  164. Bit rate                                 : 49.5 kb/s
  165. Count of elements                        : 1824
  166. Stream size                              : 28.8 MiB (0%)
  167. Title                                    : SDH
  168. Language                                 : Spanish
  169. Default                                  : No
  170. Forced                                   : No
  171.  
  172. Menu
  173. 00:00:00.000                             : en:Start
  174. 00:08:30.510                             : en:Azul Checks Out
  175. 00:12:40.426                             : en:Different
  176. 00:19:20.409                             : en:One-Man Band
  177. 00:23:42.796                             : en:Looking for a Friend
  178. 00:27:05.749                             : en:Domino
  179. 00:32:45.380                             : en:Cheap Room
  180. 00:37:14.982                             : en:Eluding Moco's Boys
  181. 00:41:00.833                             : en:End of the Chase
  182. 00:44:32.002                             : en:Just Killed Four Men
  183. 00:47:35.394                             : en:In Domino's Room
  184. 00:53:40.926                             : en:Looking for a Man
  185. 00:57:44.210                             : en:Interrogation
  186. 01:04:00.378                             : en:Staying on His Side
  187. 01:08:07.208                             : en:Back to the Hotel
  188. 01:14:52.237                             : en:A Beer for Azul
RAW Paste Data
We use cookies for various purposes including analytics. By continuing to use Pastebin, you agree to our use of cookies as described in the Cookies Policy. OK, I Understand
 
Top