SHARE
TWEET

Untitled

a guest May 23rd, 2019 74 Never
Not a member of Pastebin yet? Sign Up, it unlocks many cool features!
  1. General
  2. Unique ID                                : 288300726751167075100864202831725501214 (0xD8E4B3447E296EF839AFC4C549D29B1E)
  3. Complete name                            : O:\[ENCODES]\DEMUX\lalave\1\L'Age d'Or aka Age of Gold 1930 1080p BluRay DD 2.0 x264-Eeyore.mkv
  4. Format                                   : Matroska
  5. Format version                           : Version 4 / Version 2
  6. File size                                : 1.79 GiB
  7. Duration                                 : 1 h 2 min
  8. Overall bit rate                         : 4 090 kb/s
  9. Movie name                               : L'Age d'Or  Age of Gold 1930 1080p BluRay DD 2.0 x264-Eeyore
  10. Encoded date                             : UTC 2019-05-22 15:03:00
  11. Writing application                      : mkvmerge v34.0.0 ('Sight and Seen') 64-bit
  12. Writing library                          : libebml v1.3.7 + libmatroska v1.5.0
  13.  
  14. Video
  15. ID                                       : 1
  16. Format                                   : AVC
  17. Format/Info                              : Advanced Video Codec
  18. Format profile                           : High@L4.1
  19. Format settings, CABAC                   : Yes
  20. Format settings, RefFrames               : 6 frames
  21. Codec ID                                 : V_MPEG4/ISO/AVC
  22. Duration                                 : 1 h 2 min
  23. Bit rate                                 : 3 700 kb/s
  24. Width                                    : 1 280 pixels
  25. Height                                   : 1 080 pixels
  26. Display aspect ratio                     : 1.185
  27. Frame rate mode                          : Constant
  28. Frame rate                               : 23.976 (24000/1001) FPS
  29. Color space                              : YUV
  30. Chroma subsampling                       : 4:2:0
  31. Bit depth                                : 8 bits
  32. Scan type                                : Progressive
  33. Bits/(Pixel*Frame)                       : 0.112
  34. Stream size                              : 1.62 GiB (90%)
  35. Writing library                          : x264 core 152 r2851 ba24899
  36. Encoding settings                        : cabac=1 / ref=6 / deblock=1:-2:-2 / analyse=0x3:0x133 / me=umh / subme=9 / psy=1 / psy_rd=1.05:0.00 / mixed_ref=0 / me_range=24 / chroma_me=1 / trellis=2 / 8x8dct=1 / cqm=0 / deadzone=6,6 / fast_pskip=0 / chroma_qp_offset=-2 / threads=6 / lookahead_threads=1 / sliced_threads=0 / nr=0 / decimate=0 / interlaced=0 / bluray_compat=0 / constrained_intra=0 / bframes=6 / b_pyramid=2 / b_adapt=2 / b_bias=0 / direct=3 / weightb=1 / open_gop=0 / weightp=2 / keyint=250 / keyint_min=23 / scenecut=40 / intra_refresh=0 / rc_lookahead=60 / rc=2pass / mbtree=1 / bitrate=3700 / ratetol=1.0 / qcomp=0.70 / qpmin=0 / qpmax=69 / qpstep=4 / cplxblur=20.0 / qblur=0.5 / ip_ratio=1.30 / aq=1:1.00
  37. Default                                  : Yes
  38. Forced                                   : No
  39.  
  40. Audio
  41. ID                                       : 2
  42. Format                                   : AC-3
  43. Format/Info                              : Audio Coding 3
  44. Format settings, Endianness              : Big
  45. Codec ID                                 : A_AC3
  46. Duration                                 : 1 h 2 min
  47. Bit rate mode                            : Constant
  48. Bit rate                                 : 384 kb/s
  49. Channel(s)                               : 2 channels
  50. Channel positions                        : Front: L R
  51. Sampling rate                            : 48.0 kHz
  52. Frame rate                               : 31.250 FPS (1536 SPF)
  53. Bit depth                                : 16 bits
  54. Compression mode                         : Lossy
  55. Stream size                              : 172 MiB (9%)
  56. Language                                 : French
  57. Service kind                             : Complete Main
  58. Default                                  : Yes
  59. Forced                                   : No
  60.  
  61. Text #1
  62. ID                                       : 3
  63. Format                                   : PGS
  64. Muxing mode                              : zlib
  65. Codec ID                                 : S_HDMV/PGS
  66. Codec ID/Info                            : Picture based subtitle format used on BDs/HD-DVDs
  67. Duration                                 : 58 min 51 s
  68. Bit rate                                 : 5 175 b/s
  69. Count of elements                        : 218
  70. Stream size                              : 2.18 MiB (0%)
  71. Language                                 : English
  72. Default                                  : Yes
  73. Forced                                   : No
  74.  
  75. Text #2
  76. ID                                       : 4
  77. Format                                   : PGS
  78. Muxing mode                              : zlib
  79. Codec ID                                 : S_HDMV/PGS
  80. Codec ID/Info                            : Picture based subtitle format used on BDs/HD-DVDs
  81. Duration                                 : 59 min 34 s
  82. Bit rate                                 : 5 106 b/s
  83. Count of elements                        : 250
  84. Stream size                              : 2.18 MiB (0%)
  85. Language                                 : Russian
  86. Default                                  : No
  87. Forced                                   : No
  88.  
  89. Menu
  90. 00:00:00.000                             : :Chapter 01
  91. 00:05:28.578                             : :Chapter 02
  92. 00:10:40.974                             : :Chapter 03
  93. 00:15:03.778                             : :Chapter 04
  94. 00:20:21.137                             : :Chapter 05
  95. 00:26:03.145                             : :Chapter 06
  96. 00:31:01.443                             : :Chapter 07
  97. 00:35:16.948                             : :Chapter 08
  98. 00:40:06.446                             : :Chapter 09
  99. 00:45:10.708                             : :Chapter 10
  100. 00:50:06.754                             : :Chapter 11
  101. 00:54:59.296                             : :Chapter 12
RAW Paste Data
We use cookies for various purposes including analytics. By continuing to use Pastebin, you agree to our use of cookies as described in the Cookies Policy. OK, I Understand
 
Top