SHARE
TWEET

RO HDR works not

a guest Apr 23rd, 2020 7 Never
Not a member of Pastebin yet? Sign Up, it unlocks many cool features!
  1. General
  2. Unique ID : 151387969454052666407618676021383328769 (0x71E44329F83253C557CB9176F5D6F401)
  3. Complete name : --------
  4. Format : Matroska
  5. Format version : Version 4
  6. File size : 52.0 GiB
  7. Duration : 2 h 13 min
  8. Overall bit rate mode : Variable
  9. Overall bit rate : 55.6 Mb/s
  10. Encoded date : UTC 2020-04-18 19:33:42
  11. Writing application : mkvmerge v41.0.0 ('Smarra') 64-bit
  12. Writing library : libebml v1.3.9 + libmatroska v1.5.2
  13.  
  14. Video
  15. ID : 1
  16. Format : HEVC
  17. Format/Info : High Efficiency Video Coding
  18. Format profile : Main 10@L5.1@High
  19. HDR format : SMPTE ST 2086, HDR10 compatible
  20. Codec ID : V_MPEGH/ISO/HEVC
  21. Duration : 2 h 13 min
  22. Bit rate : 47.0 Mb/s
  23. Width : 3 840 pixels
  24. Height : 2 160 pixels
  25. Display aspect ratio : 16:9
  26. Frame rate mode : Constant
  27. Frame rate : 23.976 (24000/1001) FPS
  28. Color space : YUV
  29. Chroma subsampling : 4:2:0 (Type 2)
  30. Bit depth : 10 bits
  31. Bits/(Pixel*Frame) : 0.236
  32. Stream size : 43.9 GiB (84%)
  33. Writing library : ATEME Titan File 3.9.0 (4.9.0.0)  
  34. Default : Yes
  35. Forced : No
  36. Color range : Limited
  37. Color primaries : BT.2020
  38. Transfer characteristics : PQ
  39. Matrix coefficients : BT.2020 non-constant
  40. Mastering display color primaries : Display P3
  41. Mastering display luminance : min: 0.0050 cd/m2, max: 4000 cd/m2
  42.  
  43. Audio #1
  44. ID : 2
  45. Format : E-AC-3
  46. Format/Info : Enhanced AC-3
  47. Commercial name : Dolby Digital Plus
  48. Format profile : Blu-ray Disc
  49. Codec ID : A_EAC3
  50. Duration : 2 h 13 min
  51. Bit rate mode : Constant
  52. Bit rate : 1 024 kb/s
  53. Channel(s) : 8 channels
  54. Channel layout : L R C LFE Ls Rs Lb Rb
  55. Sampling rate : 48.0 kHz
  56. Frame rate : 31.250 FPS (1536 SPF)
  57. Compression mode : Lossy
  58. Stream size : 981 MiB (2%)
  59. Title : Deutsch Dolby Digital Plus 7.1 (UHD Blu-ray)
  60. Language : German
  61. Service kind : Complete Main
  62. Default : Yes
  63. Forced : No
  64.  
  65. Audio #2
  66. ID : 3
  67. Format : DTS XLL
  68. Format/Info : Digital Theater Systems
  69. Commercial name : DTS-HD Master Audio
  70. Codec ID : A_DTS
  71. Duration : 2 h 13 min
  72. Bit rate mode : Variable
  73. Bit rate : 2 676 kb/s
  74. Channel(s) : 8 channels
  75. Channel layout : C L R LFE Lb Rb Lss Rss
  76. Sampling rate : 48.0 kHz
  77. Frame rate : 93.750 FPS (512 SPF)
  78. Bit depth : 16 bits
  79. Compression mode : Lossless
  80. Stream size : 2.50 GiB (5%)
  81. Title : Deutsch DTS-HD MA 7.1 (Mixed by asterixi)
  82. Language : German
  83. Default : No
  84. Forced : No
  85.  
  86. Audio #3
  87. ID : 4
  88. Format : MLP FBA 16-ch
  89. Format/Info : Meridian Lossless Packing FBA with 16-channel presentation
  90. Commercial name : Dolby TrueHD with Dolby Atmos
  91. Codec ID : A_TRUEHD
  92. Duration : 2 h 13 min
  93. Bit rate mode : Variable
  94. Bit rate : 4 211 kb/s
  95. Maximum bit rate : 5 055 kb/s
  96. Channel(s) : 8 channels
  97. Channel layout : L R C LFE Ls Rs Lb Rb
  98. Sampling rate : 48.0 kHz
  99. Frame rate : 1 200.000 FPS (40 SPF)
  100. Compression mode : Lossless
  101. Stream size : 3.94 GiB (8%)
  102. Title : English TrueHD Atmos 7.1 (UHD Blu-ray)
  103. Language : English
  104. Default : No
  105. Forced : No
  106. Number of dynamic objects : 13
  107. Bed channel count : 1 channel
  108. Bed channel configuration : LFE
  109.  
  110. Audio #4
  111. ID : 5
  112. Format : AC-3
  113. Format/Info : Audio Coding 3
  114. Commercial name : Dolby Digital
  115. Codec ID : A_AC3
  116. Duration : 2 h 13 min
  117. Bit rate mode : Constant
  118. Bit rate : 640 kb/s
  119. Channel(s) : 6 channels
  120. Channel layout : L R C LFE Ls Rs
  121. Sampling rate : 48.0 kHz
  122. Frame rate : 31.250 FPS (1536 SPF)
  123. Compression mode : Lossy
  124. Stream size : 613 MiB (1%)
  125. Title : English Dolby Digital 5.1 (UHD Blu-ray)
  126. Language : English
  127. Service kind : Complete Main
  128. Default : No
  129. Forced : No
  130.  
  131. Text #1
  132. ID : 6
  133. Format : UTF-8
  134. Codec ID : S_TEXT/UTF8
  135. Codec ID/Info : UTF-8 Plain Text
  136. Duration : 25 min 37 s
  137. Bit rate : 1 b/s
  138. Count of elements : 9
  139. Stream size : 242 Bytes (0%)
  140. Title : Deutsch Forced (SRT)
  141. Language : German
  142. Default : Yes
  143. Forced : Yes
  144.  
  145. Text #2
  146. ID : 7
  147. Format : VobSub
  148. Muxing mode : zlib
  149. Codec ID : S_VOBSUB
  150. Codec ID/Info : Picture based subtitle format used on DVDs
  151. Duration : 1 h 23 min
  152. Bit rate : 74 b/s
  153. Count of elements : 26
  154. Stream size : 45.7 KiB (0%)
  155. Title : Deutsch Forced (VobSub)
  156. Language : German
  157. Default : No
  158. Forced : Yes
  159.  
  160. Text #3
  161. ID : 8
  162. Format : PGS
  163. Muxing mode : zlib
  164. Codec ID : S_HDMV/PGS
  165. Codec ID/Info : Picture based subtitle format used on BDs/HD-DVDs
  166. Duration : 1 h 23 min
  167. Bit rate : 299 b/s
  168. Count of elements : 52
  169. Stream size : 184 KiB (0%)
  170. Title : Deutsch Forced (PGS)
  171. Language : German
  172. Default : No
  173. Forced : Yes
  174.  
  175. Text #4
  176. ID : 9
  177. Format : VobSub
  178. Muxing mode : zlib
  179. Codec ID : S_VOBSUB
  180. Codec ID/Info : Picture based subtitle format used on DVDs
  181. Duration : 2 h 5 min
  182. Bit rate : 8 704 b/s
  183. Count of elements : 1494
  184. Stream size : 7.81 MiB (0%)
  185. Title : Deutsch (VobSub)
  186. Language : German
  187. Default : No
  188. Forced : No
  189.  
  190. Text #5
  191. ID : 10
  192. Format : PGS
  193. Muxing mode : zlib
  194. Codec ID : S_HDMV/PGS
  195. Codec ID/Info : Picture based subtitle format used on BDs/HD-DVDs
  196. Duration : 2 h 5 min
  197. Bit rate : 31.9 kb/s
  198. Count of elements : 2988
  199. Stream size : 28.6 MiB (0%)
  200. Title : Deutsch (PGS)
  201. Language : German
  202. Default : No
  203. Forced : No
  204.  
  205. Text #6
  206. ID : 11
  207. Format : VobSub
  208. Muxing mode : zlib
  209. Codec ID : S_VOBSUB
  210. Codec ID/Info : Picture based subtitle format used on DVDs
  211. Duration : 2 h 5 min
  212. Bit rate : 9 787 b/s
  213. Count of elements : 1832
  214. Stream size : 8.78 MiB (0%)
  215. Title : English SDH (VobSub)
  216. Language : English
  217. Default : No
  218. Forced : No
  219.  
  220. Text #7
  221. ID : 12
  222. Format : PGS
  223. Muxing mode : zlib
  224. Codec ID : S_HDMV/PGS
  225. Codec ID/Info : Picture based subtitle format used on BDs/HD-DVDs
  226. Duration : 2 h 5 min
  227. Bit rate : 35.7 kb/s
  228. Count of elements : 3664
  229. Stream size : 32.1 MiB (0%)
  230. Title : English SDH (PGS)
  231. Language : English
  232. Default : No
  233. Forced : No
  234.  
  235. Menu
  236. 00:00:00.000 : :Kapitel 01
  237. 00:02:34.529 : :Kapitel 02
  238. 00:07:46.341 : :Kapitel 03
  239. 00:08:42.689 : :Kapitel 04
  240. 00:11:04.497 : :Kapitel 05
  241. 00:12:21.074 : :Kapitel 06
  242. 00:13:41.028 : :Kapitel 07
  243. 00:17:19.789 : :Kapitel 08
  244. 00:20:09.416 : :Kapitel 09
  245. 00:21:54.646 : :Kapitel 10
  246. 00:23:46.967 : :Kapitel 11
  247. 00:24:31.261 : :Kapitel 12
  248. 00:26:53.320 : :Kapitel 13
  249. 00:27:46.498 : :Kapitel 14
  250. 00:30:37.168 : :Kapitel 15
  251. 00:33:53.281 : :Kapitel 16
  252. 00:37:11.145 : :Kapitel 17
  253. 00:42:29.964 : :Kapitel 18
  254. 00:47:16.000 : :Kapitel 19
  255. 00:51:04.019 : :Kapitel 20
  256. 00:52:23.599 : :Kapitel 21
  257. 00:55:53.141 : :Kapitel 22
  258. 00:59:48.126 : :Kapitel 23
  259. 01:02:07.682 : :Kapitel 24
  260. 01:05:25.380 : :Kapitel 25
  261. 01:10:23.970 : :Kapitel 26
  262. 01:12:49.407 : :Kapitel 27
  263. 01:16:28.334 : :Kapitel 28
  264. 01:19:04.198 : :Kapitel 29
  265. 01:21:55.035 : :Kapitel 30
  266. 01:23:25.542 : :Kapitel 31
  267. 01:25:58.862 : :Kapitel 32
  268. 01:27:34.833 : :Kapitel 33
  269. 01:29:57.183 : :Kapitel 34
  270. 01:31:53.716 : :Kapitel 35
  271. 01:34:18.611 : :Kapitel 36
  272. 01:36:07.386 : :Kapitel 37
  273. 01:37:48.112 : :Kapitel 38
  274. 01:40:27.480 : :Kapitel 39
  275. 01:42:43.949 : :Kapitel 40
  276. 01:45:26.653 : :Kapitel 41
  277. 01:47:54.885 : :Kapitel 42
  278. 01:50:31.291 : :Kapitel 43
  279. 01:53:28.760 : :Kapitel 44
  280. 01:55:46.147 : :Kapitel 45
  281. 01:59:23.323 : :Kapitel 46
  282. 02:01:11.222 : :Kapitel 47
  283. 02:03:15.471 : :Kapitel 48
  284. 02:05:41.993 : :Kapitel 49
RAW Paste Data
We use cookies for various purposes including analytics. By continuing to use Pastebin, you agree to our use of cookies as described in the Cookies Policy. OK, I Understand
Top