Advertisement
Asmodexia

Assassins.Creed.2016.PROPER.2160p.BluRay.REMUX.HEVC.DTS-HD.MA.TrueHD.7.1.Atmos-FGT

May 4th, 2023 (edited)
375
0
Never
Not a member of Pastebin yet? Sign Up, it unlocks many cool features!
JSON 14.36 KB | None | 0 0
  1. Assassins.Creed.2016.PROPER.2160p.BluRay.REMUX.HEVC.DTS-HD.MA.TrueHD.7.1.Atmos-FGT
  2.  
  3. Video
  4. ID : 1
  5. ID in the original source medium : 4113 (0x1011)
  6. Format : HEVC
  7. Format/Info : High Efficiency Video Coding
  8. Format profile : Main 10@L5.1@High
  9. HDR format : SMPTE ST 2086, HDR10 compatible
  10. Codec ID : V_MPEGH/ISO/HEVC
  11. Duration : 1 h 55 min
  12. Bit rate : 35.0 Mb/s
  13. Width : 3 840 pixels
  14. Height : 2 160 pixels
  15. Display aspect ratio : 16:9
  16. Frame rate mode : Constant
  17. Frame rate : 23.976 (24000/1001) FPS
  18. Color space : YUV
  19. Chroma subsampling : 4:2:0 (Type 2)
  20. Bit depth : 10 bits
  21. Bits/(Pixel*Frame) : 0.176
  22. Stream size : 28.2 GiB (70%)
  23. Writing library : ATEME Titan File 3.7.8 (4.7.8.0)
  24. Language : English
  25. Default : No
  26. Forced : No
  27. Color range : Limited
  28. Color primaries : BT.2020
  29. Transfer characteristics : PQ
  30. Matrix coefficients : BT.2020 non-constant
  31. Mastering display color primaries : Display P3
  32. Mastering display luminance : min: 0.0000 cd/m2, max: 1000 cd/m2
  33. Original source medium : Blu-ray
  34.  
  35. Audio #1
  36. ID : 2
  37. ID in the original source medium : 4352 (0x1100)
  38. Format : MLP FBA 16-ch
  39. Format/Info : Meridian Lossless Packing FBA with 16-channel presentation
  40. Commercial name : Dolby TrueHD with Dolby Atmos
  41. Codec ID : A_TRUEHD
  42. Duration : 1 h 55 min
  43. Bit rate mode : Variable
  44. Bit rate : 5 896 kb/s
  45. Maximum bit rate : 9 129 kb/s
  46. Channel(s) : 8 channels
  47. Channel layout : L R C LFE Ls Rs Lb Rb
  48. Sampling rate : 48.0 kHz
  49. Frame rate : 1 200.000 FPS (40 SPF)
  50. Bit depth : 24 bits
  51. Compression mode : Lossless
  52. Stream size : 4.76 GiB (12%)
  53. Title : TrueHD 7.1 Atmos
  54. Language : English
  55. Default : Yes
  56. Forced : No
  57. Original source medium : Blu-ray
  58. Number of dynamic objects : 13
  59. Bed channel count : 1 channel
  60. Bed channel configuration : LFE
  61.  
  62. Audio #2
  63. ID : 3
  64. Format : DTS XLL
  65. Format/Info : Digital Theater Systems
  66. Commercial name : DTS-HD Master Audio
  67. Codec ID : A_DTS
  68. Duration : 1 h 55 min
  69. Bit rate mode : Variable
  70. Bit rate : 4 334 kb/s
  71. Channel(s) : 8 channels
  72. Channel layout : C L R LFE Lb Rb Lss Rss
  73. Sampling rate : 48.0 kHz
  74. Frame rate : 93.750 FPS (512 SPF)
  75. Bit depth : 24 bits
  76. Compression mode : Lossless
  77. Stream size : 3.50 GiB (9%)
  78. Title : DTS-HD MA 7.1
  79. Language : English
  80. Default : Yes
  81. Forced : No
  82.  
  83. Audio #3
  84. ID : 4
  85. ID in the original source medium : 4352 (0x1100)
  86. Format : AC-3
  87. Format/Info : Audio Coding 3
  88. Commercial name : Dolby Digital
  89. Codec ID : A_AC3
  90. Duration : 1 h 55 min
  91. Bit rate mode : Constant
  92. Bit rate : 640 kb/s
  93. Channel(s) : 6 channels
  94. Channel layout : L R C LFE Ls Rs
  95. Sampling rate : 48.0 kHz
  96. Frame rate : 31.250 FPS (1536 SPF)
  97. Compression mode : Lossy
  98. Stream size : 529 MiB (1%)
  99. Title : DD 5.1
  100. Language : English
  101. Service kind : Complete Main
  102. Default : No
  103. Forced : No
  104. Original source medium : Blu-ray
  105.  
  106. Audio #4
  107. ID : 5
  108. ID in the original source medium : 4353 (0x1101)
  109. Format : AC-3
  110. Format/Info : Audio Coding 3
  111. Commercial name : Dolby Digital
  112. Codec ID : A_AC3
  113. Duration : 1 h 55 min
  114. Bit rate mode : Constant
  115. Bit rate : 448 kb/s
  116. Channel(s) : 6 channels
  117. Channel layout : L R C LFE Ls Rs
  118. Sampling rate : 48.0 kHz
  119. Frame rate : 31.250 FPS (1536 SPF)
  120. Compression mode : Lossy
  121. Stream size : 370 MiB (1%)
  122. Title : DD 5.1
  123. Language : English
  124. Service kind : Complete Main
  125. Default : No
  126. Forced : No
  127. Original source medium : Blu-ray
  128.  
  129. Audio #5
  130. ID : 6
  131. ID in the original source medium : 4354 (0x1102)
  132. Format : AC-3
  133. Format/Info : Audio Coding 3
  134. Commercial name : Dolby Digital
  135. Codec ID : A_AC3
  136. Duration : 1 h 55 min
  137. Bit rate mode : Constant
  138. Bit rate : 448 kb/s
  139. Channel(s) : 6 channels
  140. Channel layout : L R C LFE Ls Rs
  141. Sampling rate : 48.0 kHz
  142. Frame rate : 31.250 FPS (1536 SPF)
  143. Compression mode : Lossy
  144. Stream size : 370 MiB (1%)
  145. Title : DD 5.1
  146. Language : Spanish
  147. Service kind : Complete Main
  148. Default : No
  149. Forced : No
  150. Original source medium : Blu-ray
  151.  
  152. Audio #6
  153. ID : 7
  154. ID in the original source medium : 4355 (0x1103)
  155. Format : DTS
  156. Format/Info : Digital Theater Systems
  157. Codec ID : A_DTS
  158. Duration : 1 h 55 min
  159. Bit rate mode : Constant
  160. Bit rate : 768 kb/s
  161. Channel(s) : 6 channels
  162. Channel layout : C L R Ls Rs LFE
  163. Sampling rate : 48.0 kHz
  164. Frame rate : 93.750 FPS (512 SPF)
  165. Bit depth : 24 bits
  166. Compression mode : Lossy
  167. Stream size : 635 MiB (2%)
  168. Title : DTS 5.1
  169. Language : French
  170. Default : No
  171. Forced : No
  172. Original source medium : Blu-ray
  173.  
  174. Audio #7
  175. ID : 8
  176. ID in the original source medium : 4356 (0x1104)
  177. Format : DTS
  178. Format/Info : Digital Theater Systems
  179. Codec ID : A_DTS
  180. Duration : 1 h 55 min
  181. Bit rate mode : Constant
  182. Bit rate : 768 kb/s
  183. Channel(s) : 6 channels
  184. Channel layout : C L R Ls Rs LFE
  185. Sampling rate : 48.0 kHz
  186. Frame rate : 93.750 FPS (512 SPF)
  187. Bit depth : 24 bits
  188. Compression mode : Lossy
  189. Stream size : 635 MiB (2%)
  190. Title : DTS 5.1
  191. Language : Spanish
  192. Default : No
  193. Forced : No
  194. Original source medium : Blu-ray
  195.  
  196. Audio #8
  197. ID : 9
  198. ID in the original source medium : 4357 (0x1105)
  199. Format : DTS
  200. Format/Info : Digital Theater Systems
  201. Codec ID : A_DTS
  202. Duration : 1 h 55 min
  203. Bit rate mode : Constant
  204. Bit rate : 768 kb/s
  205. Channel(s) : 6 channels
  206. Channel layout : C L R Ls Rs LFE
  207. Sampling rate : 48.0 kHz
  208. Frame rate : 93.750 FPS (512 SPF)
  209. Bit depth : 24 bits
  210. Compression mode : Lossy
  211. Stream size : 635 MiB (2%)
  212. Title : DTS 5.1
  213. Language : German
  214. Default : No
  215. Forced : No
  216. Original source medium : Blu-ray
  217.  
  218. Audio #9
  219. ID : 10
  220. ID in the original source medium : 4358 (0x1106)
  221. Format : DTS
  222. Format/Info : Digital Theater Systems
  223. Codec ID : A_DTS
  224. Duration : 1 h 55 min
  225. Bit rate mode : Constant
  226. Bit rate : 768 kb/s
  227. Channel(s) : 6 channels
  228. Channel layout : C L R Ls Rs LFE
  229. Sampling rate : 48.0 kHz
  230. Frame rate : 93.750 FPS (512 SPF)
  231. Bit depth : 24 bits
  232. Compression mode : Lossy
  233. Stream size : 635 MiB (2%)
  234. Title : DTS 5.1
  235. Language : Italian
  236. Default : No
  237. Forced : No
  238. Original source medium : Blu-ray
  239.  
  240. Text #1
  241. ID : 11
  242. Format : UTF-8
  243. Codec ID : S_TEXT/UTF8
  244. Codec ID/Info : UTF-8 Plain Text
  245. Duration : 1 h 18 min
  246. Bit rate : 4 b/s
  247. Frame rate : 0.018 FPS
  248. Count of elements : 87
  249. Stream size : 2.59 KiB (0%)
  250. Title : FORCED
  251. Language : English
  252. Default : No
  253. Forced : Yes
  254.  
  255. Text #2
  256. ID : 12
  257. Format : UTF-8
  258. Codec ID : S_TEXT/UTF8
  259. Codec ID/Info : UTF-8 Plain Text
  260. Duration : 1 h 42 min
  261. Bit rate : 25 b/s
  262. Frame rate : 0.115 FPS
  263. Count of elements : 707
  264. Stream size : 18.9 KiB (0%)
  265. Language : English
  266. Default : Yes
  267. Forced : No
  268.  
  269. Text #3
  270. ID : 13
  271. Format : UTF-8
  272. Codec ID : S_TEXT/UTF8
  273. Codec ID/Info : UTF-8 Plain Text
  274. Duration : 1 h 42 min
  275. Bit rate : 28 b/s
  276. Frame rate : 0.141 FPS
  277. Count of elements : 862
  278. Stream size : 21.5 KiB (0%)
  279. Title : SDH
  280. Language : English
  281. Default : No
  282. Forced : No
  283.  
  284. Text #4
  285. ID : 14
  286. ID in the original source medium : 4768 (0x12A0)
  287. Format : PGS
  288. Muxing mode : zlib
  289. Codec ID : S_HDMV/PGS
  290. Codec ID/Info : Picture based subtitle format used on BDs/HD-DVDs
  291. Duration : 1 h 42 min
  292. Bit rate : 18.2 kb/s
  293. Frame rate : 0.287 FPS
  294. Count of elements : 1762
  295. Stream size : 13.3 MiB (0%)
  296. Language : English
  297. Default : No
  298. Forced : No
  299. Original source medium : Blu-ray
  300.  
  301. Text #5
  302. ID : 15
  303. ID in the original source medium : 4769 (0x12A1)
  304. Format : PGS
  305. Muxing mode : zlib
  306. Codec ID : S_HDMV/PGS
  307. Codec ID/Info : Picture based subtitle format used on BDs/HD-DVDs
  308. Duration : 1 h 53 min
  309. Bit rate : 11.8 kb/s
  310. Frame rate : 0.166 FPS
  311. Count of elements : 1136
  312. Stream size : 9.58 MiB (0%)
  313. Language : Spanish
  314. Default : No
  315. Forced : No
  316. Original source medium : Blu-ray
  317.  
  318. Text #6
  319. ID : 16
  320. ID in the original source medium : 4769 (0x12A1)
  321. Format : PGS
  322. Muxing mode : zlib
  323. Codec ID : S_HDMV/PGS
  324. Codec ID/Info : Picture based subtitle format used on BDs/HD-DVDs
  325. Duration : 1 h 53 min
  326. Bit rate : 421 b/s
  327. Frame rate : 0.004 FPS
  328. Count of elements : 26
  329. Stream size : 352 KiB (0%)
  330. Title : FORCED
  331. Language : Spanish
  332. Default : No
  333. Forced : No
  334. Original source medium : Blu-ray
  335.  
  336. Text #7
  337. ID : 17
  338. ID in the original source medium : 4770 (0x12A2)
  339. Format : PGS
  340. Muxing mode : zlib
  341. Codec ID : S_HDMV/PGS
  342. Codec ID/Info : Picture based subtitle format used on BDs/HD-DVDs
  343. Duration : 1 h 54 min
  344. Bit rate : 12.7 kb/s
  345. Frame rate : 0.201 FPS
  346. Count of elements : 1378
  347. Stream size : 10.4 MiB (0%)
  348. Language : French
  349. Default : No
  350. Forced : No
  351. Original source medium : Blu-ray
  352.  
  353. Text #8
  354. ID : 18
  355. ID in the original source medium : 4770 (0x12A2)
  356. Format : PGS
  357. Muxing mode : zlib
  358. Codec ID : S_HDMV/PGS
  359. Codec ID/Info : Picture based subtitle format used on BDs/HD-DVDs
  360. Duration : 1 h 54 min
  361. Bit rate : 2 413 b/s
  362. Frame rate : 0.039 FPS
  363. Count of elements : 270
  364. Stream size : 1.97 MiB (0%)
  365. Title : FORCED
  366. Language : French
  367. Default : No
  368. Forced : No
  369. Original source medium : Blu-ray
  370.  
  371. Text #9
  372. ID : 19
  373. ID in the original source medium : 4771 (0x12A3)
  374. Format : PGS
  375. Muxing mode : zlib
  376. Codec ID : S_HDMV/PGS
  377. Codec ID/Info : Picture based subtitle format used on BDs/HD-DVDs
  378. Duration : 1 h 54 min
  379. Bit rate : 11.3 kb/s
  380. Frame rate : 0.168 FPS
  381. Count of elements : 1150
  382. Stream size : 9.24 MiB (0%)
  383. Language : Spanish
  384. Default : No
  385. Forced : No
  386. Original source medium : Blu-ray
  387.  
  388. Text #10
  389. ID : 20
  390. ID in the original source medium : 4771 (0x12A3)
  391. Format : PGS
  392. Muxing mode : zlib
  393. Codec ID : S_HDMV/PGS
  394. Codec ID/Info : Picture based subtitle format used on BDs/HD-DVDs
  395. Duration : 1 h 54 min
  396. Bit rate : 647 b/s
  397. Frame rate : 0.007 FPS
  398. Count of elements : 48
  399. Stream size : 542 KiB (0%)
  400. Title : FORCED
  401. Language : Spanish
  402. Default : No
  403. Forced : No
  404. Original source medium : Blu-ray
  405.  
  406. Text #11
  407. ID : 21
  408. ID in the original source medium : 4772 (0x12A4)
  409. Format : PGS
  410. Muxing mode : zlib
  411. Codec ID : S_HDMV/PGS
  412. Codec ID/Info : Picture based subtitle format used on BDs/HD-DVDs
  413. Duration : 1 h 54 min
  414. Bit rate : 13.4 kb/s
  415. Frame rate : 0.174 FPS
  416. Count of elements : 1188
  417. Stream size : 10.9 MiB (0%)
  418. Language : Danish
  419. Default : No
  420. Forced : No
  421. Original source medium : Blu-ray
  422.  
  423. Text #12
  424. ID : 22
  425. ID in the original source medium : 4773 (0x12A5)
  426. Format : PGS
  427. Muxing mode : zlib
  428. Codec ID : S_HDMV/PGS
  429. Codec ID/Info : Picture based subtitle format used on BDs/HD-DVDs
  430. Duration : 1 h 54 min
  431. Bit rate : 13.4 kb/s
  432. Frame rate : 0.179 FPS
  433. Count of elements : 1222
  434. Stream size : 10.9 MiB (0%)
  435. Language : Dutch
  436. Default : No
  437. Forced : No
  438. Original source medium : Blu-ray
  439.  
  440. Text #13
  441. ID : 23
  442. ID in the original source medium : 4774 (0x12A6)
  443. Format : PGS
  444. Muxing mode : zlib
  445. Codec ID : S_HDMV/PGS
  446. Codec ID/Info : Picture based subtitle format used on BDs/HD-DVDs
  447. Duration : 1 h 53 min
  448. Bit rate : 12.9 kb/s
  449. Frame rate : 0.194 FPS
  450. Count of elements : 1324
  451. Stream size : 10.5 MiB (0%)
  452. Language : Finnish
  453. Default : No
  454. Forced : No
  455. Original source medium : Blu-ray
  456.  
  457. Text #14
  458. ID : 24
  459. ID in the original source medium : 4775 (0x12A7)
  460. Format : PGS
  461. Muxing mode : zlib
  462. Codec ID : S_HDMV/PGS
  463. Codec ID/Info : Picture based subtitle format used on BDs/HD-DVDs
  464. Duration : 1 h 54 min
  465. Bit rate : 15.6 kb/s
  466. Frame rate : 0.192 FPS
  467. Count of elements : 1314
  468. Stream size : 12.7 MiB (0%)
  469. Language : German
  470. Default : No
  471. Forced : No
  472. Original source medium : Blu-ray
  473.  
  474. Text #15
  475. ID : 25
  476. ID in the original source medium : 4775 (0x12A7)
  477. Format : PGS
  478. Muxing mode : zlib
  479. Codec ID : S_HDMV/PGS
  480. Codec ID/Info : Picture based subtitle format used on BDs/HD-DVDs
  481. Duration : 1 h 54 min
  482. Bit rate : 3 128 b/s
  483. Frame rate : 0.032 FPS
  484. Count of elements : 222
  485. Stream size : 2.55 MiB (0%)
  486. Title : FORCED
  487. Language : German
  488. Default : No
  489. Forced : No
  490. Original source medium : Blu-ray
  491.  
  492. Text #16
  493. ID : 26
  494. ID in the original source medium : 4776 (0x12A8)
  495. Format : PGS
  496. Muxing mode : zlib
  497. Codec ID : S_HDMV/PGS
  498. Codec ID/Info : Picture based subtitle format used on BDs/HD-DVDs
  499. Duration : 1 h 54 min
  500. Bit rate : 14.4 kb/s
  501. Frame rate : 0.194 FPS
  502. Count of elements : 1328
  503. Stream size : 11.7 MiB (0%)
  504. Language : Italian
  505. Default : No
  506. Forced : No
  507. Original source medium : Blu-ray
  508.  
  509. Text #17
  510. ID : 27
  511. ID in the original source medium : 4776 (0x12A8)
  512. Format : PGS
  513. Muxing mode : zlib
  514. Codec ID : S_HDMV/PGS
  515. Codec ID/Info : Picture based subtitle format used on BDs/HD-DVDs
  516. Duration : 1 h 54 min
  517. Bit rate : 2 781 b/s
  518. Frame rate : 0.033 FPS
  519. Count of elements : 224
  520. Stream size : 2.27 MiB (0%)
  521. Title : FORCED
  522. Language : Italian
  523. Default : No
  524. Forced : No
  525. Original source medium : Blu-ray
  526.  
  527. Text #18
  528. ID : 28
  529. ID in the original source medium : 4777 (0x12A9)
  530. Format : PGS
  531. Muxing mode : zlib
  532. Codec ID : S_HDMV/PGS
  533. Codec ID/Info : Picture based subtitle format used on BDs/HD-DVDs
  534. Duration : 1 h 54 min
  535. Bit rate : 13.6 kb/s
  536. Frame rate : 0.194 FPS
  537. Count of elements : 1328
  538. Stream size : 11.1 MiB (0%)
  539. Language : Norwegian
  540. Default : No
  541. Forced : No
  542. Original source medium : Blu-ray
  543.  
  544. Text #19
  545. ID : 29
  546. ID in the original source medium : 4778 (0x12AA)
  547. Format : PGS
  548. Muxing mode : zlib
  549. Codec ID : S_HDMV/PGS
  550. Codec ID/Info : Picture based subtitle format used on BDs/HD-DVDs
  551. Duration : 1 h 54 min
  552. Bit rate : 13.8 kb/s
  553. Frame rate : 0.194 FPS
  554. Count of elements : 1326
  555. Stream size : 11.2 MiB (0%)
  556. Language : Swedish
  557. Default : No
  558. Forced : No
  559. Original source medium : Blu-ray
  560.  
  561. Text #20
  562. ID : 30
  563. ID in the original source medium : 4779 (0x12AB)
  564. Format : PGS
  565. Muxing mode : zlib
  566. Codec ID : S_HDMV/PGS
  567. Codec ID/Info : Picture based subtitle format used on BDs/HD-DVDs
  568. Duration : 1 h 18 min
  569. Bit rate : 1 426 b/s
  570. Frame rate : 0.041 FPS
  571. Count of elements : 192
  572. Stream size : 821 KiB (0%)
  573. Title : FORCED
  574. Language : English
  575. Default : No
  576. Forced : No
  577. Original source medium : Blu-ray
  578.  
  579. Text #21
  580. ID : 31
  581. ID in the original source medium : 4779 (0x12AB)
  582. Format : PGS
  583. Muxing mode : zlib
  584. Codec ID : S_HDMV/PGS
  585. Codec ID/Info : Picture based subtitle format used on BDs/HD-DVDs
  586. Duration : 1 h 18 min
  587. Bit rate : 1 426 b/s
  588. Frame rate : 0.041 FPS
  589. Count of elements : 192
  590. Stream size : 821 KiB (0%)
  591. Title : FORCED
  592. Language : English
  593. Default : No
  594. Forced : No
  595. Original source medium : Blu-ray
  596.  
  597. Menu
  598. 00:00:00.000 : en:Chapter 01
  599. 00:06:04.072 : en:Chapter 02
  600. 00:09:32.697 : en:Chapter 03
  601. 00:12:47.516 : en:Chapter 04
  602. 00:16:47.715 : en:Chapter 05
  603. 00:21:07.432 : en:Chapter 06
  604. 00:26:56.156 : en:Chapter 07
  605. 00:31:54.746 : en:Chapter 08
  606. 00:38:06.284 : en:Chapter 09
  607. 00:41:43.167 : en:Chapter 10
  608. 00:46:33.040 : en:Chapter 11
  609. 00:50:10.007 : en:Chapter 12
  610. 00:53:04.389 : en:Chapter 13
  611. 00:56:17.624 : en:Chapter 14
  612. 00:59:26.479 : en:Chapter 15
  613. 01:02:32.582 : en:Chapter 16
  614. 01:06:36.742 : en:Chapter 17
  615. 01:13:08.675 : en:Chapter 18
  616. 01:18:45.846 : en:Chapter 19
  617. 01:23:00.850 : en:Chapter 20
  618. 01:30:17.703 : en:Chapter 21
  619. 01:34:18.152 : en:Chapter 22
  620. 01:37:44.900 : en:Chapter 23
  621. 01:40:50.919 : en:Chapter 24
Advertisement
Add Comment
Please, Sign In to add comment
Advertisement