TolstiyMob

Katanagatari Vol.1 Zetto Kanna

Oct 16th, 2011
145
Never
Not a member of Pastebin yet? Sign Up, it unlocks many cool features!
  1. Disc Title: BDROM
  2. Disc Size: 17 342 881 203 bytes
  3. Protection: AACS
  4. BD-Java: No
  5. BDInfo: 0.5.6
  6.  
  7. Notes:
  8.  
  9. BDINFO HOME:
  10. Cinema Squid
  11. http://www.cinemasquid.com/blu-ray/tools/bdinfo
  12.  
  13. INCLUDES FORUMS REPORT FOR:
  14. AVS Forum Blu-ray Audio and Video Specifications Thread
  15. http://www.avsforum.com/avs-vb/showthread.php?t=1155731
  16.  
  17. ********************
  18. PLAYLIST: 00000.MPLS
  19. ********************
  20.  
  21. <--- BEGIN FORUMS PASTE --->
  22. [code]
  23. Total Video
  24. Title Codec Length Movie Size Disc Size Bitrate Bitrate Main Audio Track Secondary Audio Track
  25. ----- ------ ------- -------------- -------------- ------- ------- ------------------ ---------------------
  26. 00000.MPLS AVC 0:49:50 15 764 668 416 17 342 881 203 42,18 38,00 LPCM 2.0 2304Kbps (48kHz/24-bit)
  27. [/code]
  28.  
  29. [code]
  30.  
  31. DISC INFO:
  32.  
  33. Disc Title: BDROM
  34. Disc Size: 17 342 881 203 bytes
  35. Protection: AACS
  36. BD-Java: No
  37. BDInfo: 0.5.6
  38.  
  39. PLAYLIST REPORT:
  40.  
  41. Name: 00000.MPLS
  42. Length: 0:49:50 (h:m:s)
  43. Size: 15 764 668 416 bytes
  44. Total Bitrate: 42,18 Mbps
  45.  
  46. VIDEO:
  47.  
  48. Codec Bitrate Description
  49. ----- ------- -----------
  50. MPEG-4 AVC Video 37997 kbps 1080p / 23,976 fps / 16:9 / High Profile 4.1
  51.  
  52. AUDIO:
  53.  
  54. Codec Language Bitrate Description
  55. ----- -------- ------- -----------
  56. LPCM Audio Japanese 2304 kbps 2.0 / 48 kHz / 2304 kbps / 24-bit
  57.  
  58. FILES:
  59.  
  60. Name Time In Length Size Total Bitrate
  61. ---- ------- ------ ---- -------------
  62. 00000.M2TS 0:00:00.000 0:49:50.028 15 764 668 416 42 179
  63.  
  64. CHAPTERS:
  65.  
  66. Number Time In Length Avg Video Rate Max 1-Sec Rate Max 1-Sec Time Max 5-Sec Rate Max 5-Sec Time Max 10Sec Rate Max 10Sec Time Avg Frame Size Max Frame Size Max Frame Time
  67. ------ ------- ------ -------------- -------------- -------------- -------------- -------------- -------------- -------------- -------------- -------------- --------------
  68. 1 0:00:00.000 0:02:26.020 35 867 kbps 41 605 kbps 00:00:21.855 40 157 kbps 00:00:17.767 39 795 kbps 00:01:03.980 186 941 bytes 372 231 bytes 00:02:26.020
  69. 2 0:02:26.020 0:01:30.006 37 461 kbps 43 828 kbps 00:02:55.675 40 445 kbps 00:02:30.358 39 336 kbps 00:02:30.358 195 307 bytes 605 041 bytes 00:03:55.401
  70. 3 0:03:56.027 0:05:54.103 38 829 kbps 43 119 kbps 00:05:03.261 40 324 kbps 00:08:13.117 39 981 kbps 00:08:07.195 202 436 bytes 640 672 bytes 00:04:34.065
  71. 4 0:09:50.131 0:13:41.946 38 089 kbps 44 480 kbps 00:11:01.494 40 641 kbps 00:10:57.406 40 219 kbps 00:10:52.443 198 579 bytes 641 026 bytes 00:09:56.053
  72. 5 0:23:32.077 0:12:05.975 37 822 kbps 43 162 kbps 00:24:56.244 40 334 kbps 00:24:55.202 40 033 kbps 00:31:02.068 197 186 bytes 641 086 bytes 00:25:14.221
  73. 6 0:35:38.052 0:12:02.972 38 353 kbps 43 636 kbps 00:42:09.693 40 341 kbps 00:39:13.809 40 009 kbps 00:39:13.809 199 954 bytes 641 041 bytes 00:39:16.645
  74. 7 0:47:41.024 0:01:29.964 39 561 kbps 42 395 kbps 00:49:04.399 40 170 kbps 00:48:10.304 39 947 kbps 00:48:11.555 206 251 bytes 639 786 bytes 00:48:21.064
  75. 8 0:49:10.989 0:00:37.203 32 180 kbps 42 127 kbps 00:49:28.632 40 022 kbps 00:49:28.173 39 736 kbps 00:49:25.003 167 773 bytes 570 328 bytes 00:49:26.046
  76. 9 0:49:48.193 0:00:01.835 2 001 kbps 3 644 kbps 00:49:48.986 0 kbps 00:00:00.000 0 kbps 00:00:00.000 10 673 bytes 208 334 bytes 00:49:49.987
  77.  
  78. STREAM DIAGNOSTICS:
  79.  
  80. File PID Type Codec Language Seconds Bitrate Bytes Packets
  81. ---- --- ---- ----- -------- -------------- -------------- ------------- -----
  82. 00000.M2TS 4113 (0x1011) 0x1B AVC 2989,862 37 999 14 201 442 740 77 223 411
  83. 00000.M2TS 4352 (0x1100) 0x80 LPCM jpn (Japanese) 2989,862 2 311 863 520 664 4 784 048
  84.  
  85. [/code]
  86. <---- END FORUMS PASTE ---->
  87.  
  88. QUICK SUMMARY:
  89.  
  90. Disc Title: BDROM
  91. Disc Size: 17 342 881 203 bytes
  92. Protection: AACS
  93. BD-Java: No
  94. Playlist: 00000.MPLS
  95. Size: 15 764 668 416 bytes
  96. Length: 0:49:50
  97. Total Bitrate: 42,18 Mbps
  98. Video: MPEG-4 AVC Video / 37997 kbps / 1080p / 23,976 fps / 16:9 / High Profile 4.1
  99. Audio: Japanese / LPCM Audio / 2.0 / 48 kHz / 2304 kbps / 24-bit
  100.  
  101. ********************
  102. PLAYLIST: 00001.MPLS
  103. ********************
  104.  
  105. <--- BEGIN FORUMS PASTE --->
  106. [code]
  107. Total Video
  108. Title Codec Length Movie Size Disc Size Bitrate Bitrate Main Audio Track Secondary Audio Track
  109. ----- ------ ------- -------------- -------------- ------- ------- ------------------ ---------------------
  110. 00001.MPLS AVC 0:01:33 485 081 088 17 342 881 203 41,69 37,52 LPCM 2.0 2304Kbps (48kHz/24-bit)
  111. [/code]
  112.  
  113. [code]
  114.  
  115. DISC INFO:
  116.  
  117. Disc Title: BDROM
  118. Disc Size: 17 342 881 203 bytes
  119. Protection: AACS
  120. BD-Java: No
  121. BDInfo: 0.5.6
  122.  
  123. PLAYLIST REPORT:
  124.  
  125. Name: 00001.MPLS
  126. Length: 0:01:33 (h:m:s)
  127. Size: 485 081 088 bytes
  128. Total Bitrate: 41,69 Mbps
  129.  
  130. VIDEO:
  131.  
  132. Codec Bitrate Description
  133. ----- ------- -----------
  134. MPEG-4 AVC Video 37524 kbps 1080p / 23,976 fps / 16:9 / High Profile 4.1
  135.  
  136. AUDIO:
  137.  
  138. Codec Language Bitrate Description
  139. ----- -------- ------- -----------
  140. LPCM Audio Japanese 2304 kbps 2.0 / 48 kHz / 2304 kbps / 24-bit
  141.  
  142. FILES:
  143.  
  144. Name Time In Length Size Total Bitrate
  145. ---- ------- ------ ---- -------------
  146. 00001.M2TS 0:00:00.000 0:01:33.092 485 081 088 41 686
  147.  
  148. CHAPTERS:
  149.  
  150. Number Time In Length Avg Video Rate Max 1-Sec Rate Max 1-Sec Time Max 5-Sec Rate Max 5-Sec Time Max 10Sec Rate Max 10Sec Time Avg Frame Size Max Frame Size Max Frame Time
  151. ------ ------- ------ -------------- -------------- -------------- -------------- -------------- -------------- -------------- -------------- -------------- --------------
  152. 1 0:00:00.000 0:01:31.091 38 304 kbps 45 379 kbps 00:00:59.976 40 356 kbps 00:00:05.422 39 986 kbps 00:00:40.707 199 610 bytes 620 462 bytes 00:01:30.423
  153. 2 0:01:31.091 0:00:02.001 2 001 kbps 2 005 kbps 00:01:32.050 0 kbps 00:00:00.000 0 kbps 00:00:00.000 10 654 bytes 208 334 bytes 00:01:33.051
  154.  
  155. STREAM DIAGNOSTICS:
  156.  
  157. File PID Type Codec Language Seconds Bitrate Bytes Packets
  158. ---- --- ---- ----- -------- -------------- -------------- ------------- -----
  159. 00001.M2TS 4113 (0x1011) 0x1B AVC 92,926 37 591 436 647 606 2 374 371
  160. 00001.M2TS 4352 (0x1100) 0x80 LPCM jpn (Japanese) 92,926 2 315 26 885 836 148 952
  161.  
  162. [/code]
  163. <---- END FORUMS PASTE ---->
  164.  
  165. QUICK SUMMARY:
  166.  
  167. Disc Title: BDROM
  168. Disc Size: 17 342 881 203 bytes
  169. Protection: AACS
  170. BD-Java: No
  171. Playlist: 00001.MPLS
  172. Size: 485 081 088 bytes
  173. Length: 0:01:33
  174. Total Bitrate: 41,69 Mbps
  175. Video: MPEG-4 AVC Video / 37524 kbps / 1080p / 23,976 fps / 16:9 / High Profile 4.1
  176. Audio: Japanese / LPCM Audio / 2.0 / 48 kHz / 2304 kbps / 24-bit
  177.  
  178. ********************
  179. PLAYLIST: 00002.MPLS
  180. ********************
  181.  
  182. <--- BEGIN FORUMS PASTE --->
  183. [code]
  184. Total Video
  185. Title Codec Length Movie Size Disc Size Bitrate Bitrate Main Audio Track Secondary Audio Track
  186. ----- ------ ------- -------------- -------------- ------- ------- ------------------ ---------------------
  187. 00002.MPLS AVC 0:00:38 66 680 832 17 342 881 203 14,02 11,60 LPCM 2.0 1536Kbps (48kHz/16-bit)
  188. [/code]
  189.  
  190. [code]
  191.  
  192. DISC INFO:
  193.  
  194. Disc Title: BDROM
  195. Disc Size: 17 342 881 203 bytes
  196. Protection: AACS
  197. BD-Java: No
  198. BDInfo: 0.5.6
  199.  
  200. PLAYLIST REPORT:
  201.  
  202. Name: 00002.MPLS
  203. Length: 0:00:38 (h:m:s)
  204. Size: 66 680 832 bytes
  205. Total Bitrate: 14,02 Mbps
  206.  
  207. VIDEO:
  208.  
  209. Codec Bitrate Description
  210. ----- ------- -----------
  211. MPEG-4 AVC Video 11601 kbps 1080i / 29,970 fps / 16:9 / High Profile 4.1
  212.  
  213. AUDIO:
  214.  
  215. Codec Language Bitrate Description
  216. ----- -------- ------- -----------
  217. LPCM Audio Japanese 1536 kbps 2.0 / 48 kHz / 1536 kbps / 16-bit
  218.  
  219. FILES:
  220.  
  221. Name Time In Length Size Total Bitrate
  222. ---- ------- ------ ---- -------------
  223. 00003.M2TS 0:00:00.000 0:00:22.021 23 218 176 8 435
  224. 00002.M2TS 0:00:22.021 0:00:16.015 43 462 656 21 710
  225.  
  226. CHAPTERS:
  227.  
  228. Number Time In Length Avg Video Rate Max 1-Sec Rate Max 1-Sec Time Max 5-Sec Rate Max 5-Sec Time Max 10Sec Rate Max 10Sec Time Avg Frame Size Max Frame Size Max Frame Time
  229. ------ ------- ------ -------------- -------------- -------------- -------------- -------------- -------------- -------------- -------------- -------------- --------------
  230. 1 0:00:00.000 0:00:38.037 11 601 kbps 46 121 kbps 00:00:31.564 32 526 kbps 00:00:28.495 27 952 kbps 00:00:23.523 48 385 bytes 489 494 bytes 00:00:03.002
  231.  
  232. STREAM DIAGNOSTICS:
  233.  
  234. File PID Type Codec Language Seconds Bitrate Bytes Packets
  235. ---- --- ---- ----- -------- -------------- -------------- ------------- -----
  236. 00003.M2TS 4113 (0x1011) 0x1B AVC 21,889 6 281 17 184 086 93 744
  237. 00003.M2TS 4352 (0x1100) 0x80 LPCM jpn (Japanese) 21,889 1 552 4 246 420 26 430
  238. 00002.M2TS 4113 (0x1011) 0x1B AVC 15,883 19 128 37 974 761 206 633
  239. 00002.M2TS 4352 (0x1100) 0x80 LPCM jpn (Japanese) 15,883 1 555 3 087 692 19 218
  240.  
  241. [/code]
  242. <---- END FORUMS PASTE ---->
  243.  
  244. QUICK SUMMARY:
  245.  
  246. Disc Title: BDROM
  247. Disc Size: 17 342 881 203 bytes
  248. Protection: AACS
  249. BD-Java: No
  250. Playlist: 00002.MPLS
  251. Size: 66 680 832 bytes
  252. Length: 0:00:38
  253. Total Bitrate: 14,02 Mbps
  254. Video: MPEG-4 AVC Video / 11601 kbps / 1080i / 29,970 fps / 16:9 / High Profile 4.1
  255. Audio: Japanese / LPCM Audio / 2.0 / 48 kHz / 1536 kbps / 16-bit
  256.  
RAW Paste Data