seleZennet

Untitled

Mar 19th, 2020
162
Never
Not a member of Pastebin yet? Sign Up, it unlocks many cool features!
  1. General
  2. Unique ID : 315313512857871391205527011344833957532 (0xED372C72E7550677D5346DE821E1CE9C)
  3. Complete name : E:\Video111\A.Beautiful.Day.in.the.Neighborhood.2019.BDREMUX.2160p.HDR.seleZen.mkv
  4. Format : Matroska
  5. Format version : Version 4
  6. File size : 50.6 GiB
  7. Duration : 1 h 48 min
  8. Overall bit rate mode : Variable
  9. Overall bit rate : 66.6 Mb/s
  10. Movie name : A Beautiful Day in the Neighborhood 2019 4K from селезень
  11. Encoded date : UTC 2020-03-19 07:30:17
  12. Writing application : mkvmerge v40.0.0 ('Old Town Road + Pony') 64-bit
  13. Writing library : libebml v1.3.9 + libmatroska v1.5.2
  14.  
  15. Video
  16. ID : 1
  17. Format : HEVC
  18. Format/Info : High Efficiency Video Coding
  19. Format profile : Main 10@L5.1@High
  20. HDR format : SMPTE ST 2086, HDR10 compatible
  21. Codec ID : V_MPEGH/ISO/HEVC
  22. Duration : 1 h 48 min
  23. Bit rate : 55.0 Mb/s
  24. Width : 3 840 pixels
  25. Height : 2 160 pixels
  26. Display aspect ratio : 16:9
  27. Frame rate mode : Constant
  28. Frame rate : 23.976 (24000/1001) FPS
  29. Color space : YUV
  30. Chroma subsampling : 4:2:0 (Type 2)
  31. Bit depth : 10 bits
  32. Bits/(Pixel*Frame) : 0.277
  33. Stream size : 41.8 GiB (83%)
  34. Language : English
  35. Default : Yes
  36. Forced : No
  37. Color range : Limited
  38. Color primaries : BT.2020
  39. Transfer characteristics : PQ
  40. Matrix coefficients : BT.2020 non-constant
  41. Mastering display color pri : Display P3
  42. Mastering display luminance : min: 0.0050 cd/m2, max: 4000 cd/m2
  43. Maximum Content Light Level : 1264 cd/m2
  44. Maximum Frame-Average Light : 211 cd/m2
  45.  
  46. Audio #1
  47. ID : 2
  48. Format : AC-3
  49. Format/Info : Audio Coding 3
  50. Commercial name : Dolby Digital
  51. Codec ID : A_AC3
  52. Duration : 1 h 48 min
  53. Bit rate mode : Constant
  54. Bit rate : 384 kb/s
  55. Channel(s) : 6 channels
  56. Channel layout : L R C LFE Ls Rs
  57. Sampling rate : 48.0 kHz
  58. Frame rate : 31.250 FPS (1536 SPF)
  59. Compression mode : Lossy
  60. Stream size : 299 MiB (1%)
  61. Title : MVO [iTunes]
  62. Language : Russian
  63. Service kind : Complete Main
  64. Default : Yes
  65. Forced : Yes
  66.  
  67. Audio #2
  68. ID : 3
  69. Format : AC-3
  70. Format/Info : Audio Coding 3
  71. Commercial name : Dolby Digital
  72. Codec ID : A_AC3
  73. Duration : 1 h 48 min
  74. Bit rate mode : Constant
  75. Bit rate : 640 kb/s
  76. Channel(s) : 6 channels
  77. Channel layout : L R C LFE Ls Rs
  78. Sampling rate : 48.0 kHz
  79. Frame rate : 31.250 FPS (1536 SPF)
  80. Compression mode : Lossy
  81. Stream size : 498 MiB (1%)
  82. Title : AVO [Nazarov]
  83. Language : Russian
  84. Service kind : Complete Main
  85. Default : No
  86. Forced : No
  87.  
  88. Audio #3
  89. ID : 4
  90. Format : DTS XLL
  91. Format/Info : Digital Theater Systems
  92. Commercial name : DTS-HD Master Audio
  93. Codec ID : A_DTS
  94. Duration : 1 h 48 min
  95. Bit rate mode : Variable
  96. Bit rate : 4 612 kb/s
  97. Channel(s) : 8 channels
  98. Channel layout : C L R LFE Lb Rb Lss Rss
  99. Sampling rate : 48.0 kHz
  100. Frame rate : 93.750 FPS (512 SPF)
  101. Bit depth : 24 bits
  102. Compression mode : Lossless
  103. Stream size : 3.50 GiB (7%)
  104. Title : AVO [Nazarov]
  105. Language : Russian
  106. Default : No
  107. Forced : No
  108.  
  109. Audio #4
  110. ID : 5
  111. Format : DTS XLL
  112. Format/Info : Digital Theater Systems
  113. Commercial name : DTS-HD Master Audio
  114. Codec ID : A_DTS
  115. Duration : 1 h 48 min
  116. Bit rate mode : Variable
  117. Bit rate : 5 953 kb/s
  118. Channel(s) : 8 channels
  119. Channel layout : C L R LFE Lb Rb Lss Rss
  120. Sampling rate : 48.0 kHz
  121. Frame rate : 93.750 FPS (512 SPF)
  122. Bit depth : 24 bits
  123. Compression mode : Lossless
  124. Stream size : 4.52 GiB (9%)
  125. Title : Original
  126. Language : English
  127. Default : No
  128. Forced : No
  129.  
  130. Text #1
  131. ID : 6
  132. Format : UTF-8
  133. Codec ID : S_TEXT/UTF8
  134. Codec ID/Info : UTF-8 Plain Text
  135. Duration : 1 h 47 min
  136. Bit rate : 8 b/s
  137. Count of elements : 105
  138. Stream size : 6.62 KiB (0%)
  139. Title : Forced
  140. Language : Russian
  141. Default : Yes
  142. Forced : Yes
  143.  
  144. Text #2
  145. ID : 7
  146. Format : UTF-8
  147. Codec ID : S_TEXT/UTF8
  148. Codec ID/Info : UTF-8 Plain Text
  149. Duration : 1 h 47 min
  150. Bit rate : 80 b/s
  151. Count of elements : 1262
  152. Stream size : 63.9 KiB (0%)
  153. Title : Full
  154. Language : Russian
  155. Default : No
  156. Forced : No
  157.  
  158. Text #3
  159. ID : 8
  160. Format : UTF-8
  161. Codec ID : S_TEXT/UTF8
  162. Codec ID/Info : UTF-8 Plain Text
  163. Duration : 1 h 47 min
  164. Bit rate : 79 b/s
  165. Count of elements : 1261
  166. Stream size : 62.5 KiB (0%)
  167. Title : Full
  168. Language : Ukrainian
  169. Default : No
  170. Forced : No
  171.  
  172. Text #4
  173. ID : 9
  174. Format : UTF-8
  175. Codec ID : S_TEXT/UTF8
  176. Codec ID/Info : UTF-8 Plain Text
  177. Duration : 1 h 43 min
  178. Bit rate : 54 b/s
  179. Count of elements : 1297
  180. Stream size : 41.6 KiB (0%)
  181. Title : Full
  182. Language : English
  183. Default : No
  184. Forced : No
  185.  
  186. Text #5
  187. ID : 10
  188. Format : UTF-8
  189. Codec ID : S_TEXT/UTF8
  190. Codec ID/Info : UTF-8 Plain Text
  191. Duration : 1 h 47 min
  192. Bit rate : 55 b/s
  193. Count of elements : 1389
  194. Stream size : 43.8 KiB (0%)
  195. Title : SDH
  196. Language : English
  197. Default : No
  198. Forced : No
  199.  
  200. Text #6
  201. ID : 11
  202. Format : UTF-8
  203. Codec ID : S_TEXT/UTF8
  204. Codec ID/Info : UTF-8 Plain Text
  205. Duration : 1 h 47 min
  206. Bit rate : 46 b/s
  207. Count of elements : 1259
  208. Stream size : 37.1 KiB (0%)
  209. Title : Full
  210. Language : French
  211. Default : No
  212. Forced : No
  213.  
  214. Menu
  215. 00:00:00.000 : :Chapter 01
  216. 00:07:00.128 : :Chapter 02
  217. 00:14:17.231 : :Chapter 03
  218. 00:20:55.838 : :Chapter 04
  219. 00:30:32.748 : :Chapter 05
  220. 00:37:31.040 : :Chapter 06
  221. 00:45:50.581 : :Chapter 07
  222. 00:50:13.636 : :Chapter 08
  223. 00:57:34.451 : :Chapter 09
  224. 01:03:19.462 : :Chapter 10
  225. 01:07:26.834 : :Chapter 11
  226. 01:10:36.983 : :Chapter 12
  227. 01:14:31.133 : :Chapter 13
  228. 01:17:33.482 : :Chapter 14
  229. 01:28:54.621 : :Chapter 15
  230. 01:37:27.925 : :Chapter 16
RAW Paste Data

Adblocker detected! Please consider disabling it...

We've detected AdBlock Plus or some other adblocking software preventing Pastebin.com from fully loading.

We don't have any obnoxious sound, or popup ads, we actively block these annoying types of ads!

Please add Pastebin.com to your ad blocker whitelist or disable your adblocking software.

×