Guest User

[MC] Shimoneta [Filtered] S01E01

a guest
Dec 8th, 2017
220
Never
Not a member of Pastebin yet? Sign Up, it unlocks many cool features!
  1. General
  2. Unique ID : 243809320685803467053783840738511724522 (0xB76BF796AE2C792B81DC9A193C0C9FEA)
  3. Complete name : [MC] SHIMONETA - 01x01 - Whom Does Public Order and Morality Serve [BD-1080P] [10Bit] [X265] [DUAL-AUDIO] [AAC] [82A8F3CF].mkv
  4. Format : Matroska
  5. Format version : Version 4 / Version 2
  6. File size : 328 MiB
  7. Duration : 23 min 41 s
  8. Overall bit rate : 1 938 kb/s
  9. Movie name : [MK] Shimoneta - 01 [BD 1080p][Hi10][Dual Audio]
  10. Encoded date : UTC 2017-11-28 10:01:10
  11. Writing application : mkvmerge v15.0.0 ('Duel with the Devil') 64-bit
  12. Writing library : libebml v1.3.5 + libmatroska v1.4.5
  13. Attachments : AHundredMiles-Regular.ttf / AurulentSans-Bold_1.otf / Barthowheel Regular.ttf / Brush Strokes_0.ttf / CompleteInHimPro-Regular.ttf / JandaEveryday-Casual.ttf / KozMinPro-Bold.ttf / KozukaMinchoProStrp-H.otf / LeviReBrushed.ttf / LinLibertine_R.ttf / LinLibertine_RB.ttf / MerriweatherSans-Bold.ttf / pf_ronda_seven.ttf / PT_Sans-Web-Bold.ttf / PT_Sans-Web-Regular.ttf / Puritan-Bold.ttf / Rosario-Bold.otf / Rosario-BoldItalic.otf / Rosario-Italic.otf / Rosario-Regular.otf
  14. Writing frontend : StaxRip v1.7.0.0
  15.  
  16. Video
  17. ID : 1
  18. Format : HEVC
  19. Format/Info : High Efficiency Video Coding
  20. Format profile : Main 10@L4@Main
  21. Codec ID : V_MPEGH/ISO/HEVC
  22. Duration : 23 min 41 s
  23. Bit rate : 1 474 kb/s
  24. Width : 1 920 pixels
  25. Height : 1 080 pixels
  26. Display aspect ratio : 16:9
  27. Frame rate mode : Constant
  28. Frame rate : 23.976 (24000/1001) FPS
  29. Original frame rate : 23.976 (23976/1000) FPS
  30. Color space : YUV
  31. Chroma subsampling : 4:2:0
  32. Bit depth : 10 bits
  33. Bits/(Pixel*Frame) : 0.030
  34. Stream size : 250 MiB (76%)
  35. Writing library : x265 2.5+14-2718cb5dd67f:[Windows][GCC 7.1.0][64 bit] 10bit
  36. Encoding settings : cpuid=1173503 / frame-threads=3 / numa-pools=8 / wpp / no-pmode / no-pme / no-psnr / no-ssim / log-level=2 / input-csp=1 / input-res=1920x1080 / interlace=0 / total-frames=34083 / level-idc=0 / high-tier=1 / uhd-bd=0 / ref=3 / no-allow-non-conformance / no-repeat-headers / annexb / no-aud / no-hrd / info / hash=0 / no-temporal-layers / open-gop / min-keyint=23 / keyint=250 / bframes=4 / b-adapt=2 / b-pyramid / bframe-bias=0 / rc-lookahead=20 / lookahead-slices=6 / scenecut=40 / no-intra-refresh / ctu=64 / min-cu-size=8 / no-rect / no-amp / max-tu-size=32 / tu-inter-depth=1 / tu-intra-depth=1 / limit-tu=0 / rdoq-level=0 / dynamic-rd=0.00 / no-ssim-rd / signhide / no-tskip / nr-intra=0 / nr-inter=0 / no-constrained-intra / strong-intra-smoothing / max-merge=2 / limit-refs=3 / no-limit-modes / me=1 / subme=2 / merange=57 / temporal-mvp / weightp / no-weightb / no-analyze-src-pics / deblock=0:0 / sao / no-sao-non-deblock / rd=3 / no-early-skip / rskip / no-fast-intra / no-tskip-fast / no-cu-lossless / no-b-intra / no-splitrd-skip / rdpenalty=0 / psy-rd=2.00 / psy-rdoq=0.00 / no-rd-refine / analysis-reuse-mode=0 / no-lossless / cbqpoffs=0 / crqpoffs=0 / rc=crf / crf=22.0 / qcomp=0.60 / qpstep=4 / stats-write=0 / stats-read=0 / ipratio=1.40 / pbratio=1.30 / aq-mode=1 / aq-strength=1.00 / cutree / zone-count=0 / no-strict-cbr / qg-size=32 / no-rc-grain / qpmax=69 / qpmin=0 / no-const-vbv / sar=0 / overscan=0 / videoformat=5 / range=0 / colorprim=2 / transfer=2 / colormatrix=2 / chromaloc=0 / display-window=0 / max-cll=0,0 / min-luma=0 / max-luma=1023 / log2-max-poc-lsb=8 / vui-timing-info / vui-hrd-info / slices=1 / opt-qp-pps / opt-ref-list-length-pps / no-multi-pass-opt-rps / scenecut-bias=0.05 / no-opt-cu-delta-qp / no-aq-motion / no-hdr / no-hdr-opt / no-dhdr10-opt / analysis-reuse-level=5 / scale-factor=0 / refine-intra=0 / refine-inter=0 / refine-mv=0 / no-limit-sao / ctu-info=0
  37. Default : Yes
  38. Forced : No
  39.  
  40. Audio #1
  41. ID : 2
  42. Format : AAC
  43. Format/Info : Advanced Audio Codec
  44. Format profile : LC
  45. Codec ID : A_AAC-2
  46. Duration : 23 min 39 s
  47. Bit rate : 319 kb/s
  48. Channel(s) : 6 channels
  49. Channel positions : Front: L C R, Side: L R, LFE
  50. Sampling rate : 48.0 kHz
  51. Frame rate : 46.875 FPS (1024 SPF)
  52. Compression mode : Lossy
  53. Delay relative to video : 9 ms
  54. Stream size : 54.0 MiB (16%)
  55. Language : English
  56. Default : Yes
  57. Forced : No
  58.  
  59. Audio #2
  60. ID : 3
  61. Format : AAC
  62. Format/Info : Advanced Audio Codec
  63. Format profile : LC
  64. Codec ID : A_AAC-2
  65. Duration : 23 min 40 s
  66. Bit rate : 119 kb/s
  67. Channel(s) : 2 channels
  68. Channel positions : Front: L R
  69. Sampling rate : 48.0 kHz
  70. Frame rate : 46.875 FPS (1024 SPF)
  71. Compression mode : Lossy
  72. Delay relative to video : 9 ms
  73. Stream size : 20.2 MiB (6%)
  74. Language : Japanese
  75. Default : No
  76. Forced : No
  77.  
  78. Text #1
  79. ID : 4
  80. Format : ASS
  81. Codec ID : S_TEXT/ASS
  82. Codec ID/Info : Advanced Sub Station Alpha
  83. Duration : 21 min 45 s
  84. Bit rate : 555 b/s
  85. Count of elements : 769
  86. Compression mode : Lossless
  87. Stream size : 88.5 KiB (0%)
  88. Title : Lyrics/Signs
  89. Language : English
  90. Default : Yes
  91. Forced : No
  92.  
  93. Text #2
  94. ID : 5
  95. Format : ASS
  96. Codec ID : S_TEXT/ASS
  97. Codec ID/Info : Advanced Sub Station Alpha
  98. Duration : 23 min 36 s
  99. Bit rate : 674 b/s
  100. Count of elements : 1187
  101. Compression mode : Lossless
  102. Stream size : 117 KiB (0%)
  103. Title : Dialogue
  104. Language : Japanese
  105. Default : No
  106. Forced : No
  107.  
  108. Menu
  109. 00:00:00.000 : en:Prologue
  110. 00:02:33.987 : en:Episode
  111. 00:22:04.990 : en:Ending
  112. 00:23:34.996 : en:Next Ep Title
RAW Paste Data