GrabHD

Untitled

Mar 15th, 2020
124
Never
Not a member of Pastebin yet? Sign Up, it unlocks many cool features!
  1. Общее
  2. Уникальный идентификатор : 207113968983495121097161775669381229113 (0x9BD0B310E65844D490D42F2B0848EA39)
  3. Полное имя : D:\Раздача\Richard.Dzhuella.2019.BDRip-AVC.ExKinoRay.mkv
  4. Формат : Matroska
  5. Версия формата : Version 4 / Version 2
  6. Размер файла : 2,49 Гбайт
  7. Продолжительность : 2 ч. 10 м.
  8. Общий поток : 2721 Кбит/сек
  9. Название фильма : Richard Jewell 2019 BDRip-AVC ExKinoRay & grab777
  10. Дата кодирования : UTC 2020-03-15 08:58:35
  11. Программа кодирования : mkvmerge v7.3.0 ('Nouages') 64bit built on Oct 22 2014 18:53:34
  12. Библиотека кодирования : libebml v1.3.0 + libmatroska v1.4.1
  13.  
  14. Видео
  15. Идентификатор : 1
  16. Формат : AVC
  17. Формат/Информация : Advanced Video Codec
  18. Профиль формата : High@L4.1
  19. Настройки формата : CABAC / 12 Ref Frames
  20. Параметр CABAC формата : Да
  21. Параметр RefFrames формата : 12 кадров
  22. Идентификатор кодека : V_MPEG4/ISO/AVC
  23. Продолжительность : 2 ч. 10 м.
  24. Битрейт : 1887 Кбит/сек
  25. Ширина : 1024 пикселя
  26. Высота : 432 пикселя
  27. Соотношение сторон : 2,40:1
  28. Соотношение сторон в оригинале : 2,40:1
  29. Режим частоты кадров : Переменный
  30. Частота кадров : 23,976 кадра/сек
  31. Цветовое пространство : YUV
  32. Субдискретизация насыщенности : 4:2:0
  33. Битовая глубина : 8 бит
  34. Тип развёртки : Прогрессивная
  35. Бит/(Пиксели*Кадры) : 0.178
  36. Размер потока : 1,73 Гбайт (69%)
  37. Заголовок : Rip by grab777
  38. Библиотека кодирования : x264 core 148 r2665M a01e339
  39. Настройки программы : cabac=1 / ref=12 / deblock=1:-2:-2 / analyse=0x3:0x133 / me=umh / subme=10 / psy=1 / psy_rd=1.00:0.15 / mixed_ref=1 / me_range=32 / chroma_me=1 / trellis=2 / 8x8dct=1 / cqm=0 / deadzone=21,11 / fast_pskip=0 / chroma_qp_offset=-3 / threads=5 / lookahead_threads=1 / sliced_threads=0 / nr=0 / decimate=1 / interlaced=0 / bluray_compat=0 / constrained_intra=0 / bframes=10 / b_pyramid=2 / b_adapt=2 / b_bias=0 / direct=3 / weightb=1 / open_gop=0 / weightp=2 / keyint=230 / keyint_min=23 / scenecut=40 / intra_refresh=0 / rc_lookahead=40 / rc=crf / mbtree=1 / crf=17.5 / qcomp=0.90 / qpmin=1 / qpmax=69 / qpstep=4 / vbv_maxrate=40000 / vbv_bufsize=30000 / crf_max=0.0 / nal_hrd=none / filler=0 / ip_ratio=1.40 / aq=1:0.00
  40. Язык : English
  41. Default : Да
  42. Forced : Нет
  43.  
  44. Аудио #1
  45. Идентификатор : 2
  46. Формат : AC-3
  47. Формат/Информация : Audio Coding 3
  48. Параметр Endianness формата : Big
  49. Идентификатор кодека : A_AC3
  50. Продолжительность : 2 ч. 10 м.
  51. Вид битрейта : Постоянный
  52. Битрейт : 384 Кбит/сек
  53. Каналы : 6 каналов
  54. Расположение каналов : Front: L C R, Side: L R, LFE
  55. Частота : 48,0 КГц
  56. Частота кадров : 31,250 кадров/сек (1536 SPF)
  57. Битовая глубина : 16 бит
  58. Метод сжатия : С потерями
  59. Размер потока : 360 Мбайт (14%)
  60. Заголовок : Dub (iTunes)
  61. Язык : Russian
  62. ServiceKind/String : Complete Main
  63. Default : Да
  64. Forced : Да
  65.  
  66. Аудио #2
  67. Идентификатор : 3
  68. Формат : AC-3
  69. Формат/Информация : Audio Coding 3
  70. Параметр Endianness формата : Big
  71. Идентификатор кодека : A_AC3
  72. Продолжительность : 2 ч. 10 м.
  73. Вид битрейта : Постоянный
  74. Битрейт : 448 Кбит/сек
  75. Каналы : 6 каналов
  76. Расположение каналов : Front: L C R, Side: L R, LFE
  77. Частота : 48,0 КГц
  78. Частота кадров : 31,250 кадров/сек (1536 SPF)
  79. Битовая глубина : 16 бит
  80. Метод сжатия : С потерями
  81. Размер потока : 420 Мбайт (16%)
  82. Заголовок : Original
  83. Язык : English
  84. ServiceKind/String : Complete Main
  85. Default : Нет
  86. Forced : Нет
  87.  
  88. Текст #1
  89. Идентификатор : 4
  90. Формат : UTF-8
  91. Идентификатор кодека : S_TEXT/UTF8
  92. Идентификатор кодека/Информация : UTF-8 Plain Text
  93. Продолжительность : 2 ч. 4 м.
  94. Битрейт : 4 бит/сек
  95. ElementCount : 57
  96. Размер потока : 4,02 Кбайт (0%)
  97. Заголовок : Forced
  98. Язык : Russian
  99. Default : Да
  100. Forced : Да
  101.  
  102. Текст #2
  103. Идентификатор : 5
  104. Формат : UTF-8
  105. Идентификатор кодека : S_TEXT/UTF8
  106. Идентификатор кодека/Информация : UTF-8 Plain Text
  107. Продолжительность : 2 ч. 4 м.
  108. Битрейт : 109 бит/сек
  109. ElementCount : 2103
  110. Размер потока : 99,9 Кбайт (0%)
  111. Заголовок : Full
  112. Язык : Russian
  113. Default : Нет
  114. Forced : Нет
  115.  
  116. Текст #3
  117. Идентификатор : 6
  118. Формат : UTF-8
  119. Идентификатор кодека : S_TEXT/UTF8
  120. Идентификатор кодека/Информация : UTF-8 Plain Text
  121. Продолжительность : 2 ч. 3 м.
  122. Битрейт : 80 бит/сек
  123. ElementCount : 2470
  124. Размер потока : 72,7 Кбайт (0%)
  125. Заголовок : Full
  126. Язык : English
  127. Default : Нет
  128. Forced : Нет
  129.  
  130. Меню
  131. 00:00:00.000 : :Chapter 01
  132. 00:09:51.633 : :Chapter 02
  133. 00:20:03.619 : :Chapter 03
  134. 00:29:55.127 : :Chapter 04
  135. 00:40:03.192 : :Chapter 05
  136. 00:48:21.065 : :Chapter 06
  137. 00:57:52.552 : :Chapter 07
  138. 01:06:35.575 : :Chapter 08
  139. 01:14:34.303 : :Chapter 09
  140. 01:24:33.402 : :Chapter 10
  141. 01:34:04.097 : :Chapter 11
  142. 01:44:01.360 : :Chapter 12
  143. 01:52:20.192 : :Chapter 13
  144. 02:02:28.550 : :Chapter 14
  145. 02:04:53.361 : :Chapter 15
RAW Paste Data