SHARE
TWEET

Input video from ShadowPlay (GeForce Experience)

FutureMillennium Feb 7th, 2017 267 Never
Not a member of Pastebin yet? Sign Up, it unlocks many cool features!
  1. Input video from ShadowPlay (GeForce Experience)
  2.  
  3. General
  4. Complete name                            : Overwatch 12.01.2016 - 21.29.35.02.mp4
  5. Format                                   : MPEG-4
  6. Format profile                           : Base Media / Version 2
  7. Codec ID                                 : mp42 (mp41/isom)
  8. File size                                : 19.7 GiB
  9. Duration                                 : 58 min 25 s
  10. Overall bit rate                         : 48.2 Mb/s
  11. Recorded date                            : 2016
  12. Encoded date                             : UTC 2016-12-01 20:29:36
  13. Tagged date                              : UTC 2016-12-01 20:29:36
  14.  
  15. Video
  16. ID                                       : 1
  17. Format                                   : AVC
  18. Format/Info                              : Advanced Video Codec
  19. Format profile                           : High@L4.2
  20. Format settings, CABAC                   : Yes
  21. Format settings, ReFrames                : 1 frame
  22. Format settings, GOP                     : M=1, N=30
  23. Codec ID                                 : avc1
  24. Codec ID/Info                            : Advanced Video Coding
  25. Duration                                 : 58 min 25 s
  26. Source duration                          : 58 min 25 s
  27. Bit rate                                 : 48.0 Mb/s
  28. Width                                    : 1 920 pixels
  29. Height                                   : 1 080 pixels
  30. Display aspect ratio                     : 16:9
  31. Frame rate mode                          : Variable
  32. Frame rate                               : 59.940 (59940/1000) FPS
  33. Minimum frame rate                       : 24.907 FPS
  34. Maximum frame rate                       : 63.830 FPS
  35. Original frame rate                      : 60.000 FPS
  36. Standard                                 : PAL
  37. Color space                              : YUV
  38. Chroma subsampling                       : 4:2:0
  39. Bit depth                                : 8 bits
  40. Scan type                                : Progressive
  41. Bits/(Pixel*Frame)                       : 0.386
  42. Stream size                              : 19.6 GiB (100%)
  43. Source stream size                       : 19.6 GiB (100%)
  44. Encoded date                             : UTC 2016-12-01 20:29:36
  45. Tagged date                              : UTC 2016-12-01 20:29:36
  46. Color range                              : Limited
  47. Color primaries                          : BT.601 NTSC
  48. Transfer characteristics                 : BT.470 System M
  49. Matrix coefficients                      : BT.601
  50. mdhd_Duration                            : 3505847
  51.  
  52. Audio
  53. ID                                       : 2
  54. Format                                   : AAC
  55. Format/Info                              : Advanced Audio Codec
  56. Format profile                           : LC
  57. Codec ID                                 : 40
  58. Duration                                 : 58 min 25 s
  59. Source duration                          : 58 min 25 s
  60. Bit rate mode                            : Constant
  61. Bit rate                                 : 192 kb/s
  62. Channel(s)                               : 2 channels
  63. Channel positions                        : Front: L R
  64. Sampling rate                            : 48.0 kHz
  65. Frame rate                               : 46.875 FPS (1024 spf)
  66. Compression mode                         : Lossy
  67. Stream size                              : 82.0 MiB (0%)
  68. Source stream size                       : 82.0 MiB (0%)
  69. Encoded date                             : UTC 2016-12-01 20:29:36
  70. Tagged date                              : UTC 2016-12-01 20:29:36
  71. mdhd_Duration                            : 3505753
RAW Paste Data
We use cookies for various purposes including analytics. By continuing to use Pastebin, you agree to our use of cookies as described in the Cookies Policy. OK, I Understand
Top