Advertisement
Guest User

Untitled

a guest
Jun 28th, 2023
69
0
Never
Not a member of Pastebin yet? Sign Up, it unlocks many cool features!
text 13.13 KB | None | 0 0
  1. General
  2. Complete name : Movie.dvmkv2mp4.mp4
  3. Format : MPEG-4
  4. Format profile : Base Media / Version 2
  5. Codec ID : mp42 (iso4/mp42/dby1)
  6. File size : 36.8 GiB
  7. Duration : 3 h 13 min
  8. Overall bit rate mode : Variable
  9. Overall bit rate : 27.3 Mb/s
  10. Encoded date : UTC 2023-06-25 11:11:04
  11. Tagged date : UTC 2023-06-25 11:11:04
  12.  
  13. Video
  14. ID : 1
  15. Format : HEVC
  16. Format/Info : High Efficiency Video Coding
  17. Format profile : Main 10@L5@High
  18. HDR format : Dolby Vision, Version 0 / SMPTE ST 2086, HDR10 compatible
  19. Codec ID : dvhe
  20. Codec ID/Info : High Efficiency Video Coding with Dolby Vision
  21. Duration : 3 h 12 min
  22. Bit rate : 24.7 Mb/s
  23. Maximum bit rate : 47.4 Mb/s
  24. Width : 3 840 pixels
  25. Height : 2 160 pixels
  26. Display aspect ratio : 16:9
  27. Frame rate mode : Constant
  28. Frame rate : 23.976 (24000/1001) FPS
  29. Color space : YUV
  30. Chroma subsampling : 4:2:0 (Type 2)
  31. Bit depth : 10 bits
  32. Bits/(Pixel*Frame) : 0.124
  33. Stream size : 33.2 GiB (90%)
  34. Title : hevc:dv-profile=8@GPAC1.0.1-rev0-gd8538e8-HEAD
  35. Encoded date : UTC 2023-06-25 11:11:04
  36. Tagged date : UTC 2023-06-25 11:12:39
  37. Color range : Limited
  38. Color primaries : BT.2020
  39. Transfer characteristics : PQ
  40. Matrix coefficients : BT.2020 non-constant
  41. Mastering display color primaries : BT.2020
  42. Mastering display luminance : min: 0.0001 cd/m2, max: 1000 cd/m2
  43. Maximum Content Light Level : 287 cd/m2
  44. Maximum Frame-Average Light Level : 201 cd/m2
  45. Codec configuration box : hvcC+dvcC
  46.  
  47. Audio #1
  48. ID : 2
  49. Format : E-AC-3
  50. Format/Info : Enhanced AC-3
  51. Commercial name : Dolby Digital Plus
  52. Codec ID : ec-3
  53. Duration : 3 h 12 min
  54. Bit rate mode : Constant
  55. Bit rate : 640 kb/s
  56. Maximum bit rate : 676 kb/s
  57. Channel(s) : 6 channels
  58. Channel layout : L R C LFE Ls Rs
  59. Sampling rate : 48.0 kHz
  60. Frame rate : 31.250 FPS (1536 SPF)
  61. Compression mode : Lossy
  62. Stream size : 883 MiB (2%)
  63. Title : FR FR 5.1
  64. Language : French
  65. Service kind : Complete Main
  66. Encoded date : UTC 2023-06-25 11:12:24
  67. Tagged date : UTC 2023-06-25 11:12:39
  68.  
  69. Audio #2
  70. ID : 3
  71. Format : E-AC-3
  72. Format/Info : Enhanced AC-3
  73. Commercial name : Dolby Digital Plus
  74. Codec ID : ec-3
  75. Duration : 3 h 13 min
  76. Bit rate mode : Constant
  77. Bit rate : 640 kb/s
  78. Maximum bit rate : 676 kb/s
  79. Channel(s) : 6 channels
  80. Channel layout : L R C LFE Ls Rs
  81. Sampling rate : 48.0 kHz
  82. Frame rate : 31.250 FPS (1536 SPF)
  83. Compression mode : Lossy
  84. Stream size : 884 MiB (2%)
  85. Title : FR CA 5.1
  86. Language : French
  87. Service kind : Complete Main
  88. Encoded date : UTC 2023-06-25 11:12:27
  89. Tagged date : UTC 2023-06-25 11:12:39
  90.  
  91. Audio #3
  92. ID : 4
  93. Format : E-AC-3 JOC
  94. Format/Info : Enhanced AC-3 with Joint Object Coding
  95. Commercial name : Dolby Digital Plus with Dolby Atmos
  96. Codec ID : ec-3
  97. Duration : 3 h 12 min
  98. Bit rate mode : Constant
  99. Bit rate : 768 kb/s
  100. Maximum bit rate : 811 kb/s
  101. Channel(s) : 6 channels
  102. Channel layout : L R C LFE Ls Rs
  103. Sampling rate : 48.0 kHz
  104. Frame rate : 31.250 FPS (1536 SPF)
  105. Compression mode : Lossy
  106. Stream size : 1.03 GiB (3%)
  107. Title : US Atmos 5.1
  108. Language : English
  109. Service kind : Complete Main
  110. Encoded date : UTC 2023-06-25 11:12:30
  111. Tagged date : UTC 2023-06-25 11:12:39
  112. Complexity index : Not present / 16
  113. Number of dynamic objects : 15
  114. Bed channel count : 1 channel
  115. Bed channel configuration : LFE
  116.  
  117. Audio #4
  118. ID : 5
  119. Format : E-AC-3
  120. Format/Info : Enhanced AC-3
  121. Commercial name : Dolby Digital Plus
  122. Codec ID : ec-3
  123. Duration : 3 h 12 min
  124. Bit rate mode : Constant
  125. Bit rate : 640 kb/s
  126. Maximum bit rate : 676 kb/s
  127. Channel(s) : 6 channels
  128. Channel layout : L R C LFE Ls Rs
  129. Sampling rate : 48.0 kHz
  130. Frame rate : 31.250 FPS (1536 SPF)
  131. Compression mode : Lossy
  132. Stream size : 883 MiB (2%)
  133. Title : US 5.1
  134. Language : English
  135. Service kind : Complete Main
  136. Encoded date : UTC 2023-06-25 11:12:36
  137. Tagged date : UTC 2023-06-25 11:12:39
  138.  
  139. Text #1
  140. ID : 6
  141. Format : Timed Text
  142. Codec ID : tx3g
  143. Duration : 3 h 5 min
  144. Bit rate mode : Variable
  145. Bit rate : 2 b/s
  146. Stream size : 2.21 KiB (0%)
  147. Title : FORCED
  148. Language : French
  149. Forced : No
  150. Encoded date : UTC 2023-06-25 11:12:38
  151. Tagged date : UTC 2023-06-25 11:12:39
  152.  
  153. Text #2
  154. ID : 7
  155. Format : Timed Text
  156. Codec ID : tx3g
  157. Duration : 3 h 12 min
  158. Bit rate mode : Variable
  159. Bit rate : 52 b/s
  160. Stream size : 73.8 KiB (0%)
  161. Title : FULL
  162. Language : French
  163. Forced : No
  164. Encoded date : UTC 2023-06-25 11:12:38
  165. Tagged date : UTC 2023-06-25 11:12:39
  166.  
  167. Text #3
  168. ID : 8
  169. Format : Timed Text
  170. Codec ID : tx3g
  171. Duration : 3 h 11 min
  172. Bit rate mode : Variable
  173. Bit rate : 55 b/s
  174. Stream size : 76.8 KiB (0%)
  175. Title : SDH
  176. Language : French
  177. Forced : No
  178. Encoded date : UTC 2023-06-25 11:12:39
  179. Tagged date : UTC 2023-06-25 11:12:39
  180.  
  181. Menu
  182. 00:00:00.080 : Chapter 01
  183. 00:05:21.317 : Chapter 02
  184. 00:05:57.604 : Chapter 03
  185. 00:08:54.072 : Chapter 04
  186. 00:12:27.535 : Chapter 05
  187. 00:15:43.273 : Chapter 06
  188. 00:16:35.575 : Chapter 07
  189. 00:18:43.453 : Chapter 08
  190. 00:19:58.862 : Chapter 09
  191. 00:22:28.720 : Chapter 10
  192. 00:25:34.072 : Chapter 11
  193. 00:26:35.550 : Chapter 12
  194. 00:28:27.579 : Chapter 13
  195. 00:31:46.986 : Chapter 14
  196. 00:35:24.370 : Chapter 15
  197. 00:42:25.250 : Chapter 16
  198. 00:42:52.444 : Chapter 17
  199. 00:44:45.098 : Chapter 18
  200. 00:45:55.043 : Chapter 19
  201. 00:48:13.098 : Chapter 20
  202. 00:49:55.283 : Chapter 21
  203. 00:56:43.191 : Chapter 22
  204. 00:57:49.924 : Chapter 23
  205. 01:01:04.160 : Chapter 24
  206. 01:02:38.171 : Chapter 25
  207. 01:06:58.264 : Chapter 26
  208. 01:09:24.869 : Chapter 27
  209. 01:11:24.280 : Chapter 28
  210. 01:15:15.261 : Chapter 29
  211. 01:17:41.866 : Chapter 30
  212. 01:21:00.398 : Chapter 31
  213. 01:24:47.167 : Chapter 32
  214. 01:26:34.357 : Chapter 33
  215. 01:29:09.763 : Chapter 34
  216. 01:32:01.267 : Chapter 35
  217. 01:33:36.654 : Chapter 36
  218. 01:35:30.602 : Chapter 37
  219. 01:37:38.271 : Chapter 38
  220. 01:38:32.492 : Chapter 39
  221. 01:40:24.687 : Chapter 40
  222. 01:43:09.769 : Chapter 41
  223. 01:46:07.655 : Chapter 42
  224. 01:48:19.621 : Chapter 43
  225. 01:51:13.545 : Chapter 44
  226. 01:53:05.031 : Chapter 45
  227. 01:54:25.195 : Chapter 46
  228. 02:00:53.958 : Chapter 47
  229. 02:03:17.310 : Chapter 48
  230. 02:04:43.938 : Chapter 49
  231. 02:07:00.909 : Chapter 50
  232. 02:08:30.498 : Chapter 51
  233. 02:12:31.948 : Chapter 52
  234. 02:15:53.108 : Chapter 53
  235. 02:17:32.791 : Chapter 54
  236. 02:19:52.722 : Chapter 55
  237. 02:21:20.477 : Chapter 56
  238. 02:24:45.765 : Chapter 57
  239. 02:26:19.150 : Chapter 58
  240. 02:28:09.803 : Chapter 59
  241. 02:28:46.339 : Chapter 60
  242. 02:30:31.903 : Chapter 61
  243. 02:31:44.267 : Chapter 62
  244. 02:32:36.569 : Chapter 63
  245. 02:36:52.242 : Chapter 64
  246. 02:41:30.270 : Chapter 65
  247. 02:44:04.299 : Chapter 66
  248. 02:44:28.698 : Chapter 67
  249. 02:47:14.364 : Chapter 68
  250. 02:48:20.430 : Chapter 69
  251. 02:52:02.068 : Chapter 70
  252. 02:55:21.643 : Chapter 71
  253. 02:58:32.167 : Chapter 72
  254. 03:00:30.827 : Chapter 73
  255. 03:01:08.782 : Chapter 74
  256. 03:03:21.873 : Chapter 75
  257.  
  258.  
  259.  
Advertisement
Add Comment
Please, Sign In to add comment
Advertisement