SHARE
TWEET

Untitled

a guest Jun 11th, 2014 278 Never
Not a member of Pastebin yet? Sign Up, it unlocks many cool features!
  1. General
  2. Emperor.2012.Blu.Ray.720p.CINEMANIA.mkv
  3. Format : Matroska
  4. Format version : Version 4 / Version 2
  5. File size : 7.77 GiB
  6. Duration : 1h 45mn
  7. Overall bit rate : 10.5 Mbps
  8. Movie name : Release Group CINEMANIA
  9. Encoded date : UTC 2014-06-11 17:01:16
  10. Writing application : mkvmerge v7.0.0 ('Where We Going') 64bit built on Jun 9 2014 15:16:27
  11. Writing library : libebml v1.3.0 + libmatroska v1.4.1
  12.  
  13. Video
  14. ID : 1
  15. Format : AVC
  16. Format/Info : Advanced Video Codec
  17. Format profile : High@L4.1
  18. Format settings, CABAC : Yes
  19. Format settings, ReFrames : 12 frames
  20. Codec ID : V_MPEG4/ISO/AVC
  21. Duration : 1h 45mn
  22. Bit rate : 8 377 Kbps
  23. Width : 1 280 pixels
  24. Height : 544 pixels
  25. Display aspect ratio : 2.35:1
  26. Frame rate mode : Constant
  27. Frame rate : 23.976 fps
  28. Color space : YUV
  29. Chroma subsampling : 4:2:0
  30. Bit depth : 8 bits
  31. Scan type : Progressive
  32. Bits/(Pixel*Frame) : 0.502
  33. Stream size : 6.17 GiB (79%)
  34. Title : Release Group CINEMANIA
  35. Writing library : x264 core 135 r2345 f0c1c53
  36. Encoding settings : cabac=1 / ref=12 / deblock=1:-3:-3 / analyse=0x3:0x133 / me=tesa / subme=7 / psy=1 / psy_rd=1.05:0.00 / mixed_ref=1 / me_range=16 / chroma_me=1 / trellis=2 / 8x8dct=1 / cqm=0 / deadzone=21,11 / fast_pskip=0 / chroma_qp_offset=-2 / threads=12 / lookahead_threads=4 / sliced_threads=0 / nr=0 / decimate=1 / interlaced=0 / bluray_compat=0 / constrained_intra=0 / bframes=7 / b_pyramid=2 / b_adapt=2 / b_bias=0 / direct=3 / weightb=1 / open_gop=0 / weightp=2 / keyint=250 / keyint_min=23 / scenecut=40 / intra_refresh=0 / rc=crf / mbtree=0 / crf=16.1 / qcomp=0.75 / qpmin=0 / qpmax=69 / qpstep=4 / ip_ratio=1.40 / pb_ratio=1.30 / aq=1:0.70
  37. Language : English
  38. Default : Yes
  39. Forced : No
  40. Matrix coefficients : BT.709
  41.  
  42. Audio #1
  43. ID : 2
  44. Format : AC-3
  45. Format/Info : Audio Coding 3
  46. Mode extension : CM (complete main)
  47. Format settings, Endianness : Big
  48. Codec ID : A_AC3
  49. Duration : 1h 45mn
  50. Bit rate mode : Constant
  51. Bit rate : 448 Kbps
  52. Channel(s) : 6 channels
  53. Channel positions : Front: L C R, Side: L R, LFE
  54. Sampling rate : 48.0 KHz
  55. Bit depth : 16 bits
  56. Compression mode : Lossy
  57. Stream size : 338 MiB (4%)
  58. Title : online movies
  59. Language : Russian
  60. Default : Yes
  61. Forced : Yes
  62.  
  63. Audio #2
  64. ID : 3
  65. Format : DTS
  66. Format/Info : Digital Theater Systems
  67. Mode : 16
  68. Format settings, Endianness : Big
  69. Codec ID : A_DTS
  70. Duration : 1h 45mn
  71. Bit rate mode : Constant
  72. Bit rate : 1 509 Kbps
  73. Channel(s) : 6 channels
  74. Channel positions : Front: L C R, Side: L R, LFE
  75. Sampling rate : 48.0 KHz
  76. Bit depth : 24 bits
  77. Compression mode : Lossy
  78. Stream size : 1.11 GiB (14%)
  79. Language : English
  80. Default : No
  81. Forced : No
  82.  
  83. Text
  84. ID : 4
  85. Format : UTF-8
  86. Codec ID : S_TEXT/UTF8
  87. Codec ID/Info : UTF-8 Plain Text
  88. Language : English
  89. Default : No
  90. Forced : No
  91.  
  92. Menu #1
  93. 00:00:00.000 : en:00:00:00.000
  94. 00:07:00.170 : en:00:07:00.170
  95. 00:14:25.782 : en:00:14:25.782
  96. 00:20:41.699 : en:00:20:41.699
  97. 00:29:13.293 : en:00:29:13.293
  98. 00:36:26.559 : en:00:36:26.559
  99. 00:41:58.766 : en:00:41:58.766
  100. 00:48:26.570 : en:00:48:26.570
  101. 00:56:14.705 : en:00:56:14.705
  102. 01:02:03.678 : en:01:02:03.678
  103. 01:07:56.155 : en:01:07:56.155
  104. 01:17:27.560 : en:01:17:27.560
  105. 01:23:43.894 : en:01:23:43.894
  106. 01:31:06.127 : en:01:31:06.127
  107. 01:37:08.823 : en:01:37:08.823
  108. 01:41:01.055 : en:01:41:01.055
RAW Paste Data
We use cookies for various purposes including analytics. By continuing to use Pastebin, you agree to our use of cookies as described in the Cookies Policy. OK, I Understand
Top